  0
SECTION
  2
HEADER
  9
$ACADVER
  1
AC1014
  9
$ACADMAINTVER
 70
     0
  9
$DWGCODEPAGE
  3
GB2312
  9
$INSBASE
 10
0.0
 20
0.0
 30
0.0
  9
$EXTMIN
 10
0.0
 20
0.0
 30
0.0
  9
$EXTMAX
 10
210.0
 20
297.0
 30
0.0
  9
$LIMMIN
 10
0.0
 20
0.0
  9
$LIMMAX
 10
12.0
 20
9.0
  9
$ORTHOMODE
 70
     0
  9
$REGENMODE
 70
     1
  9
$FILLMODE
 70
     0
  9
$QTEXTMODE
 70
     0
  9
$MIRRTEXT
 70
     1
  9
$DRAGMODE
 70
     2
  9
$LTSCALE
 40
2.1
  9
$OSMODE
 70
     0
  9
$ATTMODE
 70
     1
  9
$TEXTSIZE
 40
0.2
  9
$TRACEWID
 40
0.05
  9
$TEXTSTYLE
  7
STANDARD
  9
$CLAYER
  8
0
  9
$CELTYPE
  6
BYLAYER
  9
$CECOLOR
 62
   256
  9
$CELTSCALE
 40
1.0
  9
$DELOBJ
 70
     1
  9
$DISPSILH
 70
     0
  9
$DIMSCALE
 40
1.0
  9
$DIMASZ
 40
0.18
  9
$DIMEXO
 40
0.0625
  9
$DIMDLI
 40
0.38
  9
$DIMRND
 40
0.0
  9
$DIMDLE
 40
0.0
  9
$DIMEXE
 40
0.18
  9
$DIMTP
 40
0.0
  9
$DIMTM
 40
0.0
  9
$DIMTXT
 40
0.18
  9
$DIMCEN
 40
0.09
  9
$DIMTSZ
 40
0.0
  9
$DIMTOL
 70
     0
  9
$DIMLIM
 70
     0
  9
$DIMTIH
 70
     0
  9
$DIMTOH
 70
     0
  9
$DIMSE1
 70
     0
  9
$DIMSE2
 70
     0
  9
$DIMTAD
 70
     1
  9
$DIMZIN
 70
     0
  9
$DIMBLK
  1

  9
$DIMASO
 70
     1
  9
$DIMSHO
 70
     1
  9
$DIMPOST
  1

  9
$DIMAPOST
  1

  9
$DIMALT
 70
     0
  9
$DIMALTD
 70
     2
  9
$DIMALTF
 40
25.4
  9
$DIMLFAC
 40
1.0
  9
$DIMTOFL
 70
     0
  9
$DIMTVP
 40
0.0
  9
$DIMTIX
 70
     0
  9
$DIMSOXD
 70
     0
  9
$DIMSAH
 70
     0
  9
$DIMBLK1
  1

  9
$DIMBLK2
  1

  9
$DIMSTYLE
  2
STANDARD
  9
$DIMCLRD
 70
     0
  9
$DIMCLRE
 70
     0
  9
$DIMCLRT
 70
     0
  9
$DIMTFAC
 40
1.0
  9
$DIMGAP
 40
0.09
  9
$DIMJUST
 70
     0
  9
$DIMSD1
 70
     0
  9
$DIMSD2
 70
     0
  9
$DIMTOLJ
 70
     1
  9
$DIMTZIN
 70
     0
  9
$DIMALTZ
 70
     0
  9
$DIMALTTZ
 70
     0
  9
$DIMFIT
 70
     3
  9
$DIMUPT
 70
     0
  9
$DIMUNIT
 70
     2
  9
$DIMDEC
 70
     2
  9
$DIMTDEC
 70
     4
  9
$DIMALTU
 70
     2
  9
$DIMALTTD
 70
     2
  9
$DIMTXSTY
  7
_VISDIMTXTSTYLE
  9
$DIMAUNIT
 70
     0
  9
$LUNITS
 70
     2
  9
$LUPREC
 70
     4
  9
$SKETCHINC
 40
0.1
  9
$FILLETRAD
 40
0.5
  9
$AUNITS
 70
     0
  9
$AUPREC
 70
     0
  9
$MENU
  1
.
  9
$ELEVATION
 40
0.0
  9
$PELEVATION
 40
0.0
  9
$THICKNESS
 40
0.0
  9
$LIMCHECK
 70
     0
  9
$BLIPMODE
 70
     0
  9
$CHAMFERA
 40
0.5
  9
$CHAMFERB
 40
0.5
  9
$CHAMFERC
 40
1.0
  9
$CHAMFERD
 40
0.0
  9
$SKPOLY
 70
     0
  9
$TDCREATE
 40
2450772.666465926
  9
$TDUPDATE
 40
2456812.696423611
  9
$TDINDWG
 40
0.0011564931
  9
$TDUSRTIMER
 40
0.0000000000
  9
$USRTIMER
 70
     1
  9
$ANGBASE
 50
0.0
  9
$ANGDIR
 70
     0
  9
$PDMODE
 70
     0
  9
$PDSIZE
 40
0.0
  9
$PLINEWID
 40
0.0
  9
$COORDS
 70
     1
  9
$SPLFRAME
 70
     0
  9
$SPLINETYPE
 70
     6
  9
$SPLINESEGS
 70
     8
  9
$ATTDIA
 70
     0
  9
$ATTREQ
 70
     1
  9
$HANDLING
 70
     1
  9
$HANDSEED
  5
9D
  9
$SURFTAB1
 70
     6
  9
$SURFTAB2
 70
     6
  9
$SURFTYPE
 70
     6
  9
$SURFU
 70
     6
  9
$SURFV
 70
     6
  9
$UCSNAME
  2

  9
$UCSORG
 10
0.0
 20
0.0
 30
0.0
  9
$UCSXDIR
 10
1.0
 20
0.0
 30
0.0
  9
$UCSYDIR
 10
0.0
 20
1.0
 30
0.0
  9
$PUCSNAME
  2

  9
$PUCSORG
 10
0.0
 20
0.0
 30
0.0
  9
$PUCSXDIR
 10
1.0
 20
0.0
 30
0.0
  9
$PUCSYDIR
 10
0.0
 20
1.0
 30
0.0
  9
$USERI1
 70
     0
  9
$USERI2
 70
     0
  9
$USERI3
 70
     0
  9
$USERI4
 70
     0
  9
$USERI5
 70
     0
  9
$USERR1
 40
0.0
  9
$USERR2
 40
0.0
  9
$USERR3
 40
0.0
  9
$USERR4
 40
0.0
  9
$USERR5
 40
0.0
  9
$WORLDVIEW
 70
     1
  9
$SHADEDGE
 70
     3
  9
$SHADEDIF
 70
    70
  9
$TILEMODE
 70
     1
  9
$MAXACTVP
 70
    48
  9
$PINSBASE
 10
0.0
 20
0.0
 30
0.0
  9
$PLIMCHECK
 70
     0
  9
$PEXTMIN
 10
0.0
 20
0.0
 30
0.0
  9
$PEXTMAX
 10
0.0
 20
0.0
 30
0.0
  9
$PLIMMIN
 10
0.0
 20
0.0
  9
$PLIMMAX
 10
12.0
 20
9.0
  9
$UNITMODE
 70
     0
  9
$VISRETAIN
 70
     1
  9
$PLINEGEN
 70
     0
  9
$PSLTSCALE
 70
     1
  9
$TREEDEPTH
 70
  3020
  9
$PICKSTYLE
 70
     1
  9
$CMLSTYLE
  2
STANDARD
  9
$CMLJUST
 70
     0
  9
$CMLSCALE
 40
1.0
  9
$PROXYGRAPHICS
 70
     1
  9
$MEASUREMENT
 70
     0
  0
ENDSEC
  0
SECTION
  2
CLASSES
  0
CLASS
  1
LWPOLYLINE
  2
AcDbPolyline
  3
"AutoCAD"
 90
        0
280
     0
281
     1
  0
CLASS
  1
IMAGE
  2
AcDbRasterImage
  3
ISM
 90
      127
280
     0
281
     1
  0
CLASS
  1
OLE2FRAME
  2
AcDbOle2Frame
  3
""
 90
        0
280
     0
281
     1
  0
CLASS
  1
HATCH
  2
AcDbHatch
  3
"ACAD_SEDONA"
 90
        0
280
     0
281
     1
  0
CLASS
  1
DICTIONARYVAR
  2
AcDbDictionaryVar
  3
"AutoCAD"
 90
        0
280
     0
281
     0
  0
CLASS
  1
RASTERVARIABLES
  2
AcDbRasterVariables
  3
ISM
 90
        0
280
     0
281
     0
  0
CLASS
  1
IMAGEDEF
  2
AcDbRasterImageDef
  3
ISM
 90
        0
280
     0
281
     0
  0
CLASS
  1
IMAGEDEF_REACTOR
  2
AcDbRasterImageDefReactor
  3
ISM
 90
        1
280
     0
281
     0
  0
CLASS
  1
IDBUFFER
  2
AcDbIdBuffer
  3
"Acad"
 90
        0
280
     0
281
     0
  0
CLASS
  1
SPATIAL_FILTER
  2
AcDbSpatialFilter
  3
"Acad"
 90
        0
280
     0
281
     0
  0
CLASS
  1
XRECORD
  2
AcDbXrecord
  3
"<Built In>"
 90
        0
280
     0
281
     0
  0
CLASS
  1
SORTENTSTABLE
  2
AcDbSortentsTable
  3
"AutoCAD"
 90
        0
280
     0
281
     0
  0
CLASS
  1
LAYER_INDEX
  2
AcDbLayerIndex
  3
"Acad"
 90
        0
280
     0
281
     0
  0
CLASS
  1
SPATIAL_INDEX
  2
AcDbSpatialIndex
  3
"Acad"
 90
        0
280
     0
281
     0
  0
CLASS
  1
OBJECT_PTR
  2
CAseDLPNTableRecord
  3
"ASE-LPNTableRecord"
 90
        1
280
     0
281
     0
  0
CLASS
  1
LAYOUT
  2
AcDbLayout
  3
"AutoCAD 2000"
 90
        1
280
     0
281
     0
  0
CLASS
  1
PLOTSETTINGS
  2
AcDbPlotSettings
  3
"AutoCAD 2000"
 90
        1
280
     0
281
     0
  0
CLASS
  1
ACDBDICTIONARYWDFLT
  2
AcDbDictionaryWithDefault
  3
"AutoCAD 2000"
 90
        1
280
     0
281
     0
  0
CLASS
  1
ACDBPLACEHOLDER
  2
AcDbPlaceHolder
  3
"AutoCAD 2000"
 90
        1
280
     0
281
     0
  0
CLASS
  1
VBA_PROJECT
  2
AcDbVbaProject
  3
"acadvba"
 90
        1
280
     0
281
     0
  0
CLASS
  1
WIPEOUT
  2
AcDbWipeout
  3
WipeOut|AutoCAD Express Tool|expresstools@autodesk.com
 90
      127
280
     0
281
     1
  0
CLASS
  1
WIPEOUTVARIABLES
  2
AcDbWipeoutVariables
  3
WipeOut|AutoCAD Express Tool|expresstools@autodesk.com
 90
        0
280
     0
281
     0
  0
CLASS
  1
RTEXT
  2
RText
  3
RText|AutoCAD Express Tool|expresstools@autodesk.com
 90
        0
280
     0
281
     1
  0
CLASS
  1
ARCALIGNEDTEXT
  2
AcDbArcAlignedText
  3
ATEXT|AutoCAD Express Tool|expresstools@autodesk.com
 90
        0
280
     0
281
     1
  0
ENDSEC
  0
SECTION
  2
TABLES
  0
TABLE
  2
VPORT
  5
8
100
AcDbSymbolTable
 70
     1
  0
VPORT
  5
25
100
AcDbSymbolTableRecord
100
AcDbViewportTableRecord
  2
*ACTIVE
 70
     0
 10
0.0
 20
0.0
 11
1.0
 21
1.0
 12
105.0
 22
148.5
 13
0.0
 23
0.0
 14
0.5
 24
0.5
 15
0.5
 25
0.5
 16
0.0
 26
0.0
 36
1.0
 17
0.0
 27
0.0
 37
0.0
 40
297.0
 41
0.707071
 42
50.0
 43
0.0
 44
0.0
 50
0.0
 51
0.0
 71
     0
 72
   100
 73
     1
 74
     1
 75
     0
 76
     0
 77
     0
 78
     0
  0
ENDTAB
  0
TABLE
  2
LTYPE
  5
5
100
AcDbSymbolTable
 70
     5
  0
LTYPE
  5
12
100
AcDbSymbolTableRecord
100
AcDbLinetypeTableRecord
  2
BYBLOCK
 70
    64
  3

 72
    65
 73
     0
 40
0.0
  0
LTYPE
  5
13
100
AcDbSymbolTableRecord
100
AcDbLinetypeTableRecord
  2
BYLAYER
 70
    64
  3

 72
    65
 73
     0
 40
0.0
  0
LTYPE
  5
14
100
AcDbSymbolTableRecord
100
AcDbLinetypeTableRecord
  2
CONTINUOUS
 70
     0
  3
Solid line
 72
    65
 73
     0
 40
0.0
  0
LTYPE
  5
32
100
AcDbSymbolTableRecord
100
AcDbLinetypeTableRecord
  2
DASHED2
 70
     0
  3
DASHED2
 72
    65
 73
     2
 40
0.375
 49
0.25
 74
     0
 49
-0.125
 74
     0
  0
LTYPE
  5
5E
100
AcDbSymbolTableRecord
100
AcDbLinetypeTableRecord
  2
DOT2
 70
     0
  3
DOT2
 72
    65
 73
     2
 40
0.125
 49
0.0
 74
     0
 49
-0.125
 74
     0
  0
ENDTAB
  0
TABLE
  2
LAYER
  5
2
100
AcDbSymbolTable
 70
     4
  0
LAYER
  5
E
100
AcDbSymbolTableRecord
100
AcDbLayerTableRecord
  2
0
 70
     0
 62
     7
  6
CONTINUOUS
  0
LAYER
  5
33
100
AcDbSymbolTableRecord
100
AcDbLayerTableRecord
  2
\U+6D88\U+5931\U+9EDE
 70
     0
 62
     7
  6
CONTINUOUS
  0
LAYER
  5
3D
100
AcDbSymbolTableRecord
100
AcDbLayerTableRecord
  2
\U+7DAD\U+5EA6
 70
     0
 62
     7
  6
CONTINUOUS
  0
LAYER
  5
42
100
AcDbSymbolTableRecord
100
AcDbLayerTableRecord
  2
DEFPOINTS
 70
     0
 62
     7
  6
CONTINUOUS
  0
ENDTAB
  0
TABLE
  2
STYLE
  5
3
100
AcDbSymbolTable
 70
     3
  0
STYLE
  5
F
100
AcDbSymbolTableRecord
100
AcDbTextStyleTableRecord
  2
STANDARD
 70
     0
 40
0.0
 41
1.0
 50
0.0
 71
     0
 42
0.2
  3
txt.shx
  4

  0
STYLE
  5
37
100
AcDbSymbolTableRecord
100
AcDbTextStyleTableRecord
  2
HORIZONTALCHINESET
 70
     0
 40
0.0
 41
1.0
 50
0.0
 71
     0
 42
0.2
  3
txt.shx
  4
chineset.shx
  0
STYLE
  5
46
100
AcDbSymbolTableRecord
100
AcDbTextStyleTableRecord
  2
_VISDIMTXTSTYLE
 70
     0
 40
0.0
 41
1.0
 50
0.0
 71
     0
 42
0.2
  3
arial.ttf
  4

1001
ACAD
1000
Arial
1071
       34
  0
ENDTAB
  0
TABLE
  2
VIEW
  5
6
100
AcDbSymbolTable
 70
     0
  0
ENDTAB
  0
TABLE
  2
UCS
  5
7
100
AcDbSymbolTable
 70
     0
  0
ENDTAB
  0
TABLE
  2
APPID
  5
9
100
AcDbSymbolTable
 70
     1
  0
APPID
  5
10
100
AcDbSymbolTableRecord
100
AcDbRegAppTableRecord
  2
ACAD
 70
     0
  0
ENDTAB
  0
TABLE
  2
DIMSTYLE
  5
A
100
AcDbSymbolTable
 70
     1
  0
DIMSTYLE
105
1D
102
{ACAD_REACTORS
330
4B
330
5B
330
6A
330
78
330
8B
102
}
100
AcDbSymbolTableRecord
100
AcDbDimStyleTableRecord
  2
STANDARD
 70
     0
  3

  4

  5

  6

  7

 40
1.0
 41
0.18
 42
0.0625
 43
0.38
 44
0.18
 45
0.0
 46
0.0
 47
0.0
 48
0.0
 71
     0
 72
     0
 73
     1
 74
     1
 75
     0
 76
     0
 77
     1
 78
     0
140
0.18
141
0.09
142
0.0
143
25.4
144
1.0
145
0.0
146
1.0
147
0.09
170
     0
171
     2
172
     0
173
     0
174
     0
175
     0
176
     0
177
     0
178
     0
270
     2
271
     4
272
     2
273
     2
274
     2
275
     0
280
     0
281
     0
282
     0
283
     1
284
     0
285
     0
286
     0
287
     3
288
     0
340
46
  0
ENDTAB
  0
TABLE
  2
BLOCK_RECORD
  5
1
100
AcDbSymbolTable
 70
     8
  0
BLOCK_RECORD
  5
18
100
AcDbSymbolTableRecord
100
AcDbBlockTableRecord
  2
*MODEL_SPACE
  0
BLOCK_RECORD
  5
15
100
AcDbSymbolTableRecord
100
AcDbBlockTableRecord
  2
*PAPER_SPACE
  0
BLOCK_RECORD
  5
3B
100
AcDbSymbolTableRecord
100
AcDbBlockTableRecord
  2
*D0
  0
BLOCK_RECORD
  5
4E
100
AcDbSymbolTableRecord
100
AcDbBlockTableRecord
  2
*D1
  0
BLOCK_RECORD
  5
5C
100
AcDbSymbolTableRecord
100
AcDbBlockTableRecord
  2
*D2
  0
BLOCK_RECORD
  5
6B
100
AcDbSymbolTableRecord
100
AcDbBlockTableRecord
  2
*D3
  0
BLOCK_RECORD
  5
7D
100
AcDbSymbolTableRecord
100
AcDbBlockTableRecord
  2
*D4
  0
BLOCK_RECORD
  5
8C
100
AcDbSymbolTableRecord
100
AcDbBlockTableRecord
  2
\U+6D88\U+5931\U+9EDE
  0
BLOCK_RECORD
  5
93
100
AcDbSymbolTableRecord
100
AcDbBlockTableRecord
  2
\U+65B9\U+584A
  0
BLOCK_RECORD
  5
98
100
AcDbSymbolTableRecord
100
AcDbBlockTableRecord
  2
\U+5713\U+5F62
  0
ENDTAB
  0
ENDSEC
  0
SECTION
  2
BLOCKS
  0
BLOCK
  5
19
100
AcDbEntity
  8
0
100
AcDbBlockBegin
  2
*MODEL_SPACE
 70
     0
 10
0.0
 20
0.0
 30
0.0
  3
*MODEL_SPACE
  1

  0
ENDBLK
  5
1A
100
AcDbEntity
  8
0
100
AcDbBlockEnd
  0
BLOCK
  5
16
100
AcDbEntity
 67
     1
  8
0
100
AcDbBlockBegin
  2
*PAPER_SPACE
 70
     0
 10
0.0
 20
0.0
 30
0.0
  3
*PAPER_SPACE
  1

  0
ENDBLK
  5
17
100
AcDbEntity
 67
     1
  8
0
100
AcDbBlockEnd
  0
BLOCK
  5
3C
100
AcDbEntity
  8
0
100
AcDbBlockBegin
  2
*D0
 70
    66
 10
0.0
 20
0.0
 30
0.0
  3
*D0
  1

  0
LWPOLYLINE
  5
3E
100
AcDbEntity
  8
\U+7DAD\U+5EA6
  6
CONTINUOUS
100
AcDbPolyline
 90
        2
 70
     1
 10
33.766667
 20
172.911111
 10
33.766667
 20
164.5
  0
LWPOLYLINE
  5
3F
100
AcDbEntity
  8
\U+7DAD\U+5EA6
  6
CONTINUOUS
100
AcDbPolyline
 90
        2
 70
     1
 10
172.766667
 20
172.911111
 10
172.766667
 20
164.5
  0
LINE
  5
40
100
AcDbEntity
  8
\U+7DAD\U+5EA6
  6
CONTINUOUS
100
AcDbLine
 10
103.266667
 20
170.088889
 30
0.0
 11
33.766667
 21
170.088889
 31
0.0
  0
LINE
  5
41
100
AcDbEntity
  8
\U+7DAD\U+5EA6
  6
CONTINUOUS
100
AcDbLine
 10
103.266667
 20
170.088889
 30
0.0
 11
172.766667
 21
170.088889
 31
0.0
  0
POINT
  5
43
100
AcDbEntity
  8
DEFPOINTS
100
AcDbPoint
 10
172.766667
 20
170.088889
 30
0.0
  0
POINT
  5
44
100
AcDbEntity
  8
DEFPOINTS
100
AcDbPoint
 10
33.766667
 20
163.088889
 30
0.0
  0
POINT
  5
45
100
AcDbEntity
  8
DEFPOINTS
100
AcDbPoint
 10
172.766667
 20
163.088889
 30
0.0
  0
MTEXT
  5
47
100
AcDbEntity
  8
0
100
AcDbMText
 10
103.266667
 20
173.402216
 30
0.0
 40
2.054655
 41
12.04056
 71
     5
 72
     1
  1
139.00
  7
_VISDIMTXTSTYLE
  0
SOLID
  5
48
100
AcDbEntity
  8
0
100
AcDbTrace
 10
33.766667
 20
170.088889
 30
0.0
 11
38.338667
 21
170.850889
 31
0.0
 12
38.338667
 22
169.326889
 32
0.0
 13
38.338667
 23
169.326889
 33
0.0
  0
SOLID
  5
49
100
AcDbEntity
  8
0
100
AcDbTrace
 10
172.766667
 20
170.088889
 30
0.0
 11
168.194667
 21
170.850889
 31
0.0
 12
168.194667
 22
169.326889
 32
0.0
 13
168.194667
 23
169.326889
 33
0.0
  0
ENDBLK
  5
4A
100
AcDbEntity
  8
0
100
AcDbBlockEnd
  0
BLOCK
  5
4F
100
AcDbEntity
  8
0
100
AcDbBlockBegin
  2
*D1
 70
    66
 10
0.0
 20
0.0
 30
0.0
  3
*D1
  1

  0
LWPOLYLINE
  5
50
100
AcDbEntity
  8
\U+7DAD\U+5EA6
  6
CONTINUOUS
100
AcDbPolyline
 90
        2
 70
     1
 10
26.644444
 20
125.288889
 10
32.555556
 20
125.288889
  0
LWPOLYLINE
  5
51
100
AcDbEntity
  8
\U+7DAD\U+5EA6
  6
CONTINUOUS
100
AcDbPolyline
 90
        2
 70
     1
 10
26.644444
 20
165.288889
 10
33.222222
 20
165.288889
  0
LINE
  5
52
100
AcDbEntity
  8
\U+7DAD\U+5EA6
  6
CONTINUOUS
100
AcDbLine
 10
29.466667
 20
145.288889
 30
0.0
 11
29.466667
 21
125.288889
 31
0.0
  0
LINE
  5
53
100
AcDbEntity
  8
\U+7DAD\U+5EA6
  6
CONTINUOUS
100
AcDbLine
 10
29.466667
 20
145.288889
 30
0.0
 11
29.466667
 21
165.288889
 31
0.0
  0
POINT
  5
54
100
AcDbEntity
  8
DEFPOINTS
100
AcDbPoint
 10
29.466667
 20
165.288889
 30
0.0
  0
POINT
  5
55
100
AcDbEntity
  8
DEFPOINTS
100
AcDbPoint
 10
33.966667
 20
125.288889
 30
0.0
  0
POINT
  5
56
100
AcDbEntity
  8
DEFPOINTS
100
AcDbPoint
 10
34.633333
 20
165.288889
 30
0.0
  0
MTEXT
  5
57
100
AcDbEntity
  8
0
100
AcDbMText
 10
26.153339
 20
145.288889
 30
0.0
 40
2.054655
 41
10.052018
 71
     5
 72
     1
  1
40.00
  7
_VISDIMTXTSTYLE
 11
0.0
 21
1.0
 31
0.0
  0
SOLID
  5
58
100
AcDbEntity
  8
0
100
AcDbTrace
 10
29.466667
 20
125.288889
 30
0.0
 11
28.704667
 21
129.860889
 31
0.0
 12
30.228667
 22
129.860889
 32
0.0
 13
30.228667
 23
129.860889
 33
0.0
  0
SOLID
  5
59
100
AcDbEntity
  8
0
100
AcDbTrace
 10
29.466667
 20
165.288889
 30
0.0
 11
28.704667
 21
160.716889
 31
0.0
 12
30.228667
 22
160.716889
 32
0.0
 13
30.228667
 23
160.716889
 33
0.0
  0
ENDBLK
  5
5A
100
AcDbEntity
  8
0
100
AcDbBlockEnd
  0
BLOCK
  5
5D
100
AcDbEntity
  8
0
100
AcDbBlockBegin
  2
*D2
 70
    66
 10
0.0
 20
0.0
 30
0.0
  3
*D2
  1

  0
LWPOLYLINE
  5
5F
100
AcDbEntity
  8
\U+7DAD\U+5EA6
  6
DOT2
100
AcDbPolyline
 90
        2
 70
     1
 10
33.716667
 20
135.111111
 10
33.716667
 20
126.7
  0
LWPOLYLINE
  5
60
100
AcDbEntity
  8
\U+7DAD\U+5EA6
  6
DOT2
100
AcDbPolyline
 90
        2
 70
     1
 10
172.716667
 20
135.111111
 10
172.716667
 20
125.2
  0
LINE
  5
61
100
AcDbEntity
  8
\U+7DAD\U+5EA6
  6
DOT2
100
AcDbLine
 10
103.216667
 20
132.288889
 30
0.0
 11
33.716667
 21
132.288889
 31
0.0
  0
LINE
  5
62
100
AcDbEntity
  8
\U+7DAD\U+5EA6
  6
DOT2
100
AcDbLine
 10
103.216667
 20
132.288889
 30
0.0
 11
172.716667
 21
132.288889
 31
0.0
  0
POINT
  5
63
100
AcDbEntity
  8
DEFPOINTS
100
AcDbPoint
 10
172.716667
 20
132.288889
 30
0.0
  0
POINT
  5
64
100
AcDbEntity
  8
DEFPOINTS
100
AcDbPoint
 10
33.716667
 20
125.288889
 30
0.0
  0
POINT
  5
65
100
AcDbEntity
  8
DEFPOINTS
100
AcDbPoint
 10
172.716667
 20
123.788889
 30
0.0
  0
MTEXT
  5
66
100
AcDbEntity
  8
0
100
AcDbMText
 10
103.216667
 20
135.602216
 30
0.0
 40
2.054655
 41
12.04056
 71
     5
 72
     1
  1
139.00
  7
_VISDIMTXTSTYLE
  0
SOLID
  5
67
100
AcDbEntity
  8
0
100
AcDbTrace
 10
33.716667
 20
132.288889
 30
0.0
 11
38.288667
 21
133.050889
 31
0.0
 12
38.288667
 22
131.526889
 32
0.0
 13
38.288667
 23
131.526889
 33
0.0
  0
SOLID
  5
68
100
AcDbEntity
  8
0
100
AcDbTrace
 10
172.716667
 20
132.288889
 30
0.0
 11
168.144667
 21
133.050889
 31
0.0
 12
168.144667
 22
131.526889
 32
0.0
 13
168.144667
 23
131.526889
 33
0.0
  0
ENDBLK
  5
69
100
AcDbEntity
  8
0
100
AcDbBlockEnd
  0
BLOCK
  5
6C
100
AcDbEntity
  8
0
100
AcDbBlockBegin
  2
*D3
 70
    66
 10
0.0
 20
0.0
 30
0.0
  3
*D3
  1

  0
LWPOLYLINE
  5
6D
100
AcDbEntity
  8
\U+7DAD\U+5EA6
  6
CONTINUOUS
100
AcDbPolyline
 90
        2
 70
     1
 10
176.777778
 20
123.088889
 10
182.688889
 20
123.088889
  0
LWPOLYLINE
  5
6E
100
AcDbEntity
  8
\U+7DAD\U+5EA6
  6
CONTINUOUS
100
AcDbPolyline
 90
        2
 70
     1
 10
176.777778
 20
163.088889
 10
183.355556
 20
163.088889
  0
LINE
  5
6F
100
AcDbEntity
  8
\U+7DAD\U+5EA6
  6
CONTINUOUS
100
AcDbLine
 10
179.6
 20
143.088889
 30
0.0
 11
179.6
 21
123.088889
 31
0.0
  0
LINE
  5
70
100
AcDbEntity
  8
\U+7DAD\U+5EA6
  6
CONTINUOUS
100
AcDbLine
 10
179.6
 20
143.088889
 30
0.0
 11
179.6
 21
163.088889
 31
0.0
  0
POINT
  5
71
100
AcDbEntity
  8
DEFPOINTS
100
AcDbPoint
 10
179.6
 20
163.088889
 30
0.0
  0
POINT
  5
72
100
AcDbEntity
  8
DEFPOINTS
100
AcDbPoint
 10
184.1
 20
123.088889
 30
0.0
  0
POINT
  5
73
100
AcDbEntity
  8
DEFPOINTS
100
AcDbPoint
 10
184.766667
 20
163.088889
 30
0.0
  0
MTEXT
  5
74
100
AcDbEntity
  8
0
100
AcDbMText
 10
176.286673
 20
143.088889
 30
0.0
 40
2.054655
 41
10.052018
 71
     5
 72
     1
  1
40.00
  7
_VISDIMTXTSTYLE
 11
0.0
 21
1.0
 31
0.0
  0
SOLID
  5
75
100
AcDbEntity
  8
0
100
AcDbTrace
 10
179.6
 20
123.088889
 30
0.0
 11
178.838
 21
127.660889
 31
0.0
 12
180.362
 22
127.660889
 32
0.0
 13
180.362
 23
127.660889
 33
0.0
  0
SOLID
  5
76
100
AcDbEntity
  8
0
100
AcDbTrace
 10
179.6
 20
163.088889
 30
0.0
 11
178.838
 21
158.516889
 31
0.0
 12
180.362
 22
158.516889
 32
0.0
 13
180.362
 23
158.516889
 33
0.0
  0
ENDBLK
  5
77
100
AcDbEntity
  8
0
100
AcDbBlockEnd
  0
BLOCK
  5
7E
100
AcDbEntity
  8
0
100
AcDbBlockBegin
  2
*D4
 70
    66
 10
0.0
 20
0.0
 30
0.0
  3
*D4
  1

  0
LWPOLYLINE
  5
7F
100
AcDbEntity
  8
\U+7DAD\U+5EA6
  6
CONTINUOUS
100
AcDbPolyline
 90
        2
 70
     1
 10
127.944444
 20
162.838889
 10
136.355556
 20
162.838889
  0
LWPOLYLINE
  5
80
100
AcDbEntity
  8
\U+7DAD\U+5EA6
  6
CONTINUOUS
100
AcDbPolyline
 90
        2
 70
     1
 10
127.944444
 20
165.438889
 10
131.855556
 20
165.438889
  0
LINE
  5
81
100
AcDbEntity
  8
\U+7DAD\U+5EA6
  6
CONTINUOUS
100
AcDbLine
 10
130.766667
 20
158.607249
 30
0.0
 11
130.766667
 21
162.838889
 31
0.0
  0
LINE
  5
82
100
AcDbEntity
  8
\U+7DAD\U+5EA6
  6
CONTINUOUS
100
AcDbLine
 10
130.766667
 20
169.670529
 30
0.0
 11
130.766667
 21
165.438889
 31
0.0
  0
LWPOLYLINE
  5
83
100
AcDbEntity
  8
\U+7DAD\U+5EA6
  6
CONTINUOUS
100
AcDbPolyline
 90
        2
 70
     1
 10
130.766667
 20
162.838889
 10
130.766667
 20
155.919423
  0
POINT
  5
84
100
AcDbEntity
  8
DEFPOINTS
100
AcDbPoint
 10
130.766667
 20
165.438889
 30
0.0
  0
POINT
  5
85
100
AcDbEntity
  8
DEFPOINTS
100
AcDbPoint
 10
137.766667
 20
162.838889
 30
0.0
  0
POINT
  5
86
100
AcDbEntity
  8
DEFPOINTS
100
AcDbPoint
 10
133.266667
 20
165.438889
 30
0.0
  0
MTEXT
  5
87
100
AcDbEntity
  8
0
100
AcDbMText
 10
127.453339
 20
155.919423
 30
0.0
 40
2.054655
 41
8.063477
 71
     5
 72
     1
  1
2.60
  7
_VISDIMTXTSTYLE
 11
0.0
 21
1.0
 31
0.0
  0
SOLID
  5
88
100
AcDbEntity
  8
0
100
AcDbTrace
 10
130.766667
 20
162.838889
 30
0.0
 11
131.528667
 21
158.266889
 31
0.0
 12
130.004667
 22
158.266889
 32
0.0
 13
130.004667
 23
158.266889
 33
0.0
  0
SOLID
  5
89
100
AcDbEntity
  8
0
100
AcDbTrace
 10
130.766667
 20
165.438889
 30
0.0
 11
131.528667
 21
170.010889
 31
0.0
 12
130.004667
 22
170.010889
 32
0.0
 13
130.004667
 23
170.010889
 33
0.0
  0
ENDBLK
  5
8A
100
AcDbEntity
  8
0
100
AcDbBlockEnd
  0
BLOCK
  5
8D
100
AcDbEntity
  8
0
100
AcDbBlockBegin
  2
\U+6D88\U+5931\U+9EDE
 70
     2
 10
0.0
 20
0.0
 30
0.0
  3
\U+6D88\U+5931\U+9EDE
  1

  0
LINE
  5
8E
100
AcDbEntity
  8
\U+6D88\U+5931\U+9EDE
  6
DASHED2
100
AcDbLine
 10
15.0
 20
-25.0
 30
0.0
 11
15.0
 21
75.0
 31
0.0
  0
LINE
  5
8F
100
AcDbEntity
  8
\U+6D88\U+5931\U+9EDE
  6
DASHED2
100
AcDbLine
 10
-25.0
 20
15.0
 30
0.0
 11
75.0
 21
15.0
 31
0.0
  0
LWPOLYLINE
  5
90
102
{ACAD_REACTORS
330
96
102
}
100
AcDbEntity
  8
\U+6D88\U+5931\U+9EDE
  6
DASHED2
100
AcDbPolyline
 90
        4
 70
     1
 10
9.0
 20
21.0
 10
9.0
 20
9.0
 10
21.0
 20
9.0
 10
21.0
 20
21.0
  0
MTEXT
  5
91
100
AcDbEntity
  8
\U+6D88\U+5931\U+9EDE
100
AcDbMText
 10
27.5
 20
25.0
 30
0.0
 40
4.622974
 41
12.5
 71
     5
 72
     5
  1
\C214;\fArial|b0|i0|;\H4.6229736328125;V.P.
  7
HORIZONTALCHINESET
  0
ENDBLK
  5
92
100
AcDbEntity
  8
0
100
AcDbBlockEnd
  0
BLOCK
  5
94
100
AcDbEntity
  8
0
100
AcDbBlockBegin
  2
\U+65B9\U+584A
 70
     0
 10
0.0
 20
0.0
 30
0.0
  3
\U+65B9\U+584A
  1

  0
LWPOLYLINE
  5
95
102
{ACAD_REACTORS
330
96
102
}
100
AcDbEntity
  8
0
  6
CONTINUOUS
 62
     7
100
AcDbPolyline
 90
        4
 70
     1
 10
30.0
 20
35.0
 10
70.0
 20
35.0
 10
70.0
 20
65.0
 10
30.0
 20
65.0
  0
HATCH
  5
96
100
AcDbEntity
  8
0
 62
   254
100
AcDbHatch
 10
0.0
 20
0.0
 30
0.0
210
0.0
220
0.0
230
1.0
  2
SOLID
 70
     1
 71
     1
 91
        1
 92
        3
 72
     0
 73
     1
 93
        4
 10
30.0
 20
34.999999999999993
 10
70.0
 20
34.999999999999993
 10
70.0
 20
65.0
 10
30.0
 20
65.0
 97
        2
330
90
330
95
 75
     0
 76
     1
 98
        0
  0
ENDBLK
  5
97
100
AcDbEntity
  8
0
100
AcDbBlockEnd
  0
BLOCK
  5
99
100
AcDbEntity
  8
0
100
AcDbBlockBegin
  2
\U+5713\U+5F62
 70
     0
 10
0.0
 20
0.0
 30
0.0
  3
\U+5713\U+5F62
  1

  0
LWPOLYLINE
  5
9A
102
{ACAD_REACTORS
330
9B
102
}
100
AcDbEntity
  8
0
  6
CONTINUOUS
 62
     7
100
AcDbPolyline
 90
        2
 70
     1
 10
30.0
 20
50.0
 42
-1.0
 10
70.0
 20
50.0
 42
-1.0
  0
HATCH
  5
9B
100
AcDbEntity
  8
0
 62
   254
100
AcDbHatch
 10
0.0
 20
0.0
 30
0.0
210
0.0
220
0.0
230
1.0
  2
SOLID
 70
     1
 71
     1
 91
        1
 92
        3
 72
     1
 73
     1
 93
        2
 10
30.000000000000004
 20
50.0
 42
-0.9999999999999999
 10
70.0
 20
50.0
 42
-1.0000000000000071
 97
        1
330
9A
 75
     0
 76
     1
 98
        0
  0
ENDBLK
  5
9C
100
AcDbEntity
  8
0
100
AcDbBlockEnd
  0
ENDSEC
  0
SECTION
  2
ENTITIES
  0
LINE
  5
34
102
{ACAD_REACTORS
330
31
102
}
100
AcDbEntity
  8
\U+6D88\U+5931\U+9EDE
  6
DASHED2
100
AcDbLine
 10
200.0
 20
-25.0
 30
0.0
 11
200.0
 21
322.0
 31
0.0
  0
LINE
  5
35
102
{ACAD_REACTORS
330
31
102
}
100
AcDbEntity
  8
\U+6D88\U+5931\U+9EDE
  6
DASHED2
100
AcDbLine
 10
-25.0
 20
50.0
 30
0.0
 11
235.0
 21
50.0
 31
0.0
  0
LWPOLYLINE
  5
36
102
{ACAD_REACTORS
330
31
102
}
100
AcDbEntity
  8
\U+6D88\U+5931\U+9EDE
  6
DASHED2
100
AcDbPolyline
 90
        4
 70
     1
 10
194.0
 20
56.0
 10
194.0
 20
44.0
 10
206.0
 20
44.0
 10
206.0
 20
56.0
  0
MTEXT
  5
38
100
AcDbEntity
  8
\U+6D88\U+5931\U+9EDE
100
AcDbMText
 10
212.5
 20
60.0
 30
0.0
 40
4.622974
 41
12.5
 71
     5
 72
     5
  1
\C214;\fArial|b0|i0|;\H4.6229736328125;V.P.
  7
HORIZONTALCHINESET
  0
LWPOLYLINE
  5
39
102
{ACAD_REACTORS
330
3A
102
}
100
AcDbEntity
  8
0
  6
CONTINUOUS
 62
     7
100
AcDbPolyline
 90
        4
 70
     1
 10
72.266667
 20
125.338889
 10
134.266667
 20
125.338889
 10
134.266667
 20
165.438889
 10
72.266667
 20
165.438889
  0
HATCH
  5
3A
100
AcDbEntity
  8
0
 62
   254
100
AcDbHatch
 10
0.0
 20
0.0
 30
0.0
210
0.0
220
0.0
230
1.0
  2
SOLID
 70
     1
 71
     1
 91
        1
 92
        3
 72
     0
 73
     1
 93
        4
 10
72.266666611666693
 20
125.33888888888895
 10
134.26666661166669
 20
125.33888888888895
 10
134.26666661166669
 20
165.43888888888893
 10
72.266666611666693
 20
165.43888888888893
 97
        2
330
36
330
39
 75
     0
 76
     1
 98
        0
  0
DIMENSION
  5
4B
100
AcDbEntity
  8
0
100
AcDbDimension
  2
*D0
 10
172.766667
 20
170.088889
 30
0.0
 11
103.266667
 21
173.402216
 31
0.0
 70
    32
  3
STANDARD
100
AcDbAlignedDimension
 13
33.766667
 23
163.088889
 33
0.0
 14
172.766667
 24
163.088889
 34
0.0
100
AcDbRotatedDimension
1001
ACAD
1000
DSTYLE
1002
{
1070
   140
1040
2.054655
1070
    77
1070
     1
1070
    73
1070
     0
1070
   271
1070
     2
1070
   179
1070
     2
1070
   270
1070
     2
1070
   277
1070
     2
1070
   276
1070
     0
1002
}
  0
LWPOLYLINE
  5
4C
102
{ACAD_REACTORS
330
4D
102
}
100
AcDbEntity
  8
0
  6
CONTINUOUS
 62
     7
100
AcDbPolyline
 90
        4
 70
     1
 10
33.716667
 20
122.788889
 10
172.716667
 20
122.788889
 10
172.716667
 20
162.788889
 10
33.716667
 20
162.788889
  0
HATCH
  5
4D
100
AcDbEntity
  8
0
 62
   254
100
AcDbHatch
 10
0.0
 20
0.0
 30
0.0
210
0.0
220
0.0
230
1.0
  2
SOLID
 70
     1
 71
     1
 91
        1
 92
        3
 72
     0
 73
     1
 93
        4
 10
33.71666661166666
 20
122.78888888888893
 10
172.71666661166665
 20
122.78888888888893
 10
172.71666661166665
 20
162.78888888888892
 10
33.71666661166666
 20
162.78888888888892
 97
        1
330
4C
 75
     0
 76
     1
 98
        0
  0
DIMENSION
  5
5B
100
AcDbEntity
  8
0
100
AcDbDimension
  2
*D1
 10
29.466667
 20
165.288889
 30
0.0
 11
26.153339
 21
145.288889
 31
0.0
 70
    32
  3
STANDARD
100
AcDbAlignedDimension
 13
33.966667
 23
125.288889
 33
0.0
 14
34.633333
 24
165.288889
 34
0.0
 50
90.0
100
AcDbRotatedDimension
1001
ACAD
1000
DSTYLE
1002
{
1070
   140
1040
2.054655
1070
    77
1070
     1
1070
    73
1070
     0
1070
   271
1070
     2
1070
   179
1070
     2
1070
   270
1070
     2
1070
   277
1070
     2
1070
   276
1070
     0
1002
}
  0
DIMENSION
  5
6A
100
AcDbEntity
  8
0
100
AcDbDimension
  2
*D2
 10
172.716667
 20
132.288889
 30
0.0
 11
103.216667
 21
135.602216
 31
0.0
 70
    32
  3
STANDARD
100
AcDbAlignedDimension
 13
33.716667
 23
125.288889
 33
0.0
 14
172.716667
 24
123.788889
 34
0.0
100
AcDbRotatedDimension
1001
ACAD
1000
DSTYLE
1002
{
1070
   140
1040
2.054655
1070
    77
1070
     1
1070
    73
1070
     0
1070
   271
1070
     2
1070
   179
1070
     2
1070
   270
1070
     2
1070
   277
1070
     2
1070
   276
1070
     0
1002
}
  0
DIMENSION
  5
78
100
AcDbEntity
  8
0
100
AcDbDimension
  2
*D3
 10
179.6
 20
163.088889
 30
0.0
 11
176.286673
 21
143.088889
 31
0.0
 70
    32
  3
STANDARD
100
AcDbAlignedDimension
 13
184.1
 23
123.088889
 33
0.0
 14
184.766667
 24
163.088889
 34
0.0
 50
90.0
100
AcDbRotatedDimension
1001
ACAD
1000
DSTYLE
1002
{
1070
   140
1040
2.054655
1070
    77
1070
     1
1070
    73
1070
     0
1070
   271
1070
     2
1070
   179
1070
     2
1070
   270
1070
     2
1070
   277
1070
     2
1070
   276
1070
     0
1002
}
  0
LWPOLYLINE
  5
79
102
{ACAD_REACTORS
330
7A
102
}
100
AcDbEntity
  8
0
  6
CONTINUOUS
 62
     7
100
AcDbPolyline
 90
        2
 70
     1
 10
131.166667
 20
145.388889
 42
-1.0
 10
133.266667
 20
145.388889
 42
-1.0
  0
HATCH
  5
7A
100
AcDbEntity
  8
0
 62
    49
100
AcDbHatch
 10
0.0
 20
0.0
 30
0.0
210
0.0
220
0.0
230
1.0
  2
SOLID
 70
     1
 71
     1
 91
        1
 92
        3
 72
     1
 73
     1
 93
        2
 10
131.16666661166659
 20
145.38888888888894
 42
-0.9999999999999999
 10
133.26666661166661
 20
145.38888888888894
 42
-1.0000000000000071
 97
        1
330
79
 75
     0
 76
     1
 98
        0
  0
LWPOLYLINE
  5
7B
102
{ACAD_REACTORS
330
7C
102
}
100
AcDbEntity
  8
0
  6
CONTINUOUS
 62
     7
100
AcDbPolyline
 90
        2
 70
     1
 10
73.216667
 20
145.288889
 42
-1.0
 10
75.316667
 20
145.288889
 42
-1.0
  0
HATCH
  5
7C
100
AcDbEntity
  8
0
 62
    49
100
AcDbHatch
 10
0.0
 20
0.0
 30
0.0
210
0.0
220
0.0
230
1.0
  2
SOLID
 70
     1
 71
     1
 91
        1
 92
        3
 72
     1
 73
     1
 93
        2
 10
73.216666611666653
 20
145.28888888888898
 42
-0.9999999999999999
 10
75.316666611666648
 20
145.28888888888898
 42
-1.0000000000000071
 97
        1
330
7B
 75
     0
 76
     1
 98
        0
  0
DIMENSION
  5
8B
100
AcDbEntity
  8
0
100
AcDbDimension
  2
*D4
 10
130.766667
 20
165.438889
 30
0.0
 11
127.453339
 21
155.919423
 31
0.0
 70
    32
  3
STANDARD
100
AcDbAlignedDimension
 13
137.766667
 23
162.838889
 33
0.0
 14
133.266667
 24
165.438889
 34
0.0
 50
90.0
100
AcDbRotatedDimension
1001
ACAD
1000
DSTYLE
1002
{
1070
   140
1040
2.054655
1070
    77
1070
     1
1070
    73
1070
     0
1070
   271
1070
     2
1070
   179
1070
     2
1070
   270
1070
     2
1070
   277
1070
     2
1070
   276
1070
     0
1002
}
  0
ENDSEC
  0
SECTION
  2
OBJECTS
  0
DICTIONARY
  5
C
100
AcDbDictionary
  3
ACAD_GROUP
350
D
  3
ACAD_MLINESTYLE
350
1B
  0
DICTIONARY
  5
D
102
{ACAD_REACTORS
330
C
102
}
100
AcDbDictionary
  3
VISIOGROUP_0
350
31
  0
DICTIONARY
  5
1B
102
{ACAD_REACTORS
330
C
102
}
100
AcDbDictionary
  3
STANDARD
350
1C
  0
MLINESTYLE
  5
1C
102
{ACAD_REACTORS
330
1B
102
}
100
AcDbMlineStyle
  2
STANDARD
 70
     0
  3

 62
   256
 51
90.0
 52
90.0
 71
     2
 49
0.5
 62
   256
  6
BYLAYER
 49
-0.5
 62
   256
  6
BYLAYER
  0
GROUP
  5
31
102
{ACAD_REACTORS
330
D
102
}
100
AcDbGroup
300
Group created by Visio.
 70
     0
 71
     1
340
34
340
35
340
36
  0
ENDSEC
  0
EOF
