  0
SECTION
  2
HEADER
  9
$ACADVER
  1
AC1014
  9
$ACADMAINTVER
 70
     0
  9
$DWGCODEPAGE
  3
GB2312
  9
$INSBASE
 10
0.0
 20
0.0
 30
0.0
  9
$EXTMIN
 10
0.0
 20
0.0
 30
0.0
  9
$EXTMAX
 10
210.0
 20
297.0
 30
0.0
  9
$LIMMIN
 10
0.0
 20
0.0
  9
$LIMMAX
 10
12.0
 20
9.0
  9
$ORTHOMODE
 70
     0
  9
$REGENMODE
 70
     1
  9
$FILLMODE
 70
     0
  9
$QTEXTMODE
 70
     0
  9
$MIRRTEXT
 70
     1
  9
$DRAGMODE
 70
     2
  9
$LTSCALE
 40
2.1
  9
$OSMODE
 70
     0
  9
$ATTMODE
 70
     1
  9
$TEXTSIZE
 40
0.2
  9
$TRACEWID
 40
0.05
  9
$TEXTSTYLE
  7
STANDARD
  9
$CLAYER
  8
0
  9
$CELTYPE
  6
BYLAYER
  9
$CECOLOR
 62
   256
  9
$CELTSCALE
 40
1.0
  9
$DELOBJ
 70
     1
  9
$DISPSILH
 70
     0
  9
$DIMSCALE
 40
1.0
  9
$DIMASZ
 40
0.18
  9
$DIMEXO
 40
0.0625
  9
$DIMDLI
 40
0.38
  9
$DIMRND
 40
0.0
  9
$DIMDLE
 40
0.0
  9
$DIMEXE
 40
0.18
  9
$DIMTP
 40
0.0
  9
$DIMTM
 40
0.0
  9
$DIMTXT
 40
0.18
  9
$DIMCEN
 40
0.09
  9
$DIMTSZ
 40
0.0
  9
$DIMTOL
 70
     0
  9
$DIMLIM
 70
     0
  9
$DIMTIH
 70
     0
  9
$DIMTOH
 70
     0
  9
$DIMSE1
 70
     0
  9
$DIMSE2
 70
     0
  9
$DIMTAD
 70
     1
  9
$DIMZIN
 70
     0
  9
$DIMBLK
  1

  9
$DIMASO
 70
     1
  9
$DIMSHO
 70
     1
  9
$DIMPOST
  1

  9
$DIMAPOST
  1

  9
$DIMALT
 70
     0
  9
$DIMALTD
 70
     2
  9
$DIMALTF
 40
25.4
  9
$DIMLFAC
 40
1.0
  9
$DIMTOFL
 70
     0
  9
$DIMTVP
 40
0.0
  9
$DIMTIX
 70
     0
  9
$DIMSOXD
 70
     0
  9
$DIMSAH
 70
     0
  9
$DIMBLK1
  1

  9
$DIMBLK2
  1

  9
$DIMSTYLE
  2
STANDARD
  9
$DIMCLRD
 70
     0
  9
$DIMCLRE
 70
     0
  9
$DIMCLRT
 70
     0
  9
$DIMTFAC
 40
1.0
  9
$DIMGAP
 40
0.09
  9
$DIMJUST
 70
     0
  9
$DIMSD1
 70
     0
  9
$DIMSD2
 70
     0
  9
$DIMTOLJ
 70
     1
  9
$DIMTZIN
 70
     0
  9
$DIMALTZ
 70
     0
  9
$DIMALTTZ
 70
     0
  9
$DIMFIT
 70
     3
  9
$DIMUPT
 70
     0
  9
$DIMUNIT
 70
     2
  9
$DIMDEC
 70
     2
  9
$DIMTDEC
 70
     4
  9
$DIMALTU
 70
     2
  9
$DIMALTTD
 70
     2
  9
$DIMTXSTY
  7
_VISDIMTXTSTYLE
  9
$DIMAUNIT
 70
     0
  9
$LUNITS
 70
     2
  9
$LUPREC
 70
     4
  9
$SKETCHINC
 40
0.1
  9
$FILLETRAD
 40
0.5
  9
$AUNITS
 70
     0
  9
$AUPREC
 70
     0
  9
$MENU
  1
.
  9
$ELEVATION
 40
0.0
  9
$PELEVATION
 40
0.0
  9
$THICKNESS
 40
0.0
  9
$LIMCHECK
 70
     0
  9
$BLIPMODE
 70
     0
  9
$CHAMFERA
 40
0.5
  9
$CHAMFERB
 40
0.5
  9
$CHAMFERC
 40
1.0
  9
$CHAMFERD
 40
0.0
  9
$SKPOLY
 70
     0
  9
$TDCREATE
 40
2450772.666465926
  9
$TDUPDATE
 40
2456812.691597222
  9
$TDINDWG
 40
0.0011564931
  9
$TDUSRTIMER
 40
0.0000000000
  9
$USRTIMER
 70
     1
  9
$ANGBASE
 50
0.0
  9
$ANGDIR
 70
     0
  9
$PDMODE
 70
     0
  9
$PDSIZE
 40
0.0
  9
$PLINEWID
 40
0.0
  9
$COORDS
 70
     1
  9
$SPLFRAME
 70
     0
  9
$SPLINETYPE
 70
     6
  9
$SPLINESEGS
 70
     8
  9
$ATTDIA
 70
     0
  9
$ATTREQ
 70
     1
  9
$HANDLING
 70
     1
  9
$HANDSEED
  5
100
  9
$SURFTAB1
 70
     6
  9
$SURFTAB2
 70
     6
  9
$SURFTYPE
 70
     6
  9
$SURFU
 70
     6
  9
$SURFV
 70
     6
  9
$UCSNAME
  2

  9
$UCSORG
 10
0.0
 20
0.0
 30
0.0
  9
$UCSXDIR
 10
1.0
 20
0.0
 30
0.0
  9
$UCSYDIR
 10
0.0
 20
1.0
 30
0.0
  9
$PUCSNAME
  2

  9
$PUCSORG
 10
0.0
 20
0.0
 30
0.0
  9
$PUCSXDIR
 10
1.0
 20
0.0
 30
0.0
  9
$PUCSYDIR
 10
0.0
 20
1.0
 30
0.0
  9
$USERI1
 70
     0
  9
$USERI2
 70
     0
  9
$USERI3
 70
     0
  9
$USERI4
 70
     0
  9
$USERI5
 70
     0
  9
$USERR1
 40
0.0
  9
$USERR2
 40
0.0
  9
$USERR3
 40
0.0
  9
$USERR4
 40
0.0
  9
$USERR5
 40
0.0
  9
$WORLDVIEW
 70
     1
  9
$SHADEDGE
 70
     3
  9
$SHADEDIF
 70
    70
  9
$TILEMODE
 70
     1
  9
$MAXACTVP
 70
    48
  9
$PINSBASE
 10
0.0
 20
0.0
 30
0.0
  9
$PLIMCHECK
 70
     0
  9
$PEXTMIN
 10
0.0
 20
0.0
 30
0.0
  9
$PEXTMAX
 10
0.0
 20
0.0
 30
0.0
  9
$PLIMMIN
 10
0.0
 20
0.0
  9
$PLIMMAX
 10
12.0
 20
9.0
  9
$UNITMODE
 70
     0
  9
$VISRETAIN
 70
     1
  9
$PLINEGEN
 70
     0
  9
$PSLTSCALE
 70
     1
  9
$TREEDEPTH
 70
  3020
  9
$PICKSTYLE
 70
     1
  9
$CMLSTYLE
  2
STANDARD
  9
$CMLJUST
 70
     0
  9
$CMLSCALE
 40
1.0
  9
$PROXYGRAPHICS
 70
     1
  9
$MEASUREMENT
 70
     0
  0
ENDSEC
  0
SECTION
  2
CLASSES
  0
CLASS
  1
LWPOLYLINE
  2
AcDbPolyline
  3
"AutoCAD"
 90
        0
280
     0
281
     1
  0
CLASS
  1
IMAGE
  2
AcDbRasterImage
  3
ISM
 90
      127
280
     0
281
     1
  0
CLASS
  1
OLE2FRAME
  2
AcDbOle2Frame
  3
""
 90
        0
280
     0
281
     1
  0
CLASS
  1
HATCH
  2
AcDbHatch
  3
"ACAD_SEDONA"
 90
        0
280
     0
281
     1
  0
CLASS
  1
DICTIONARYVAR
  2
AcDbDictionaryVar
  3
"AutoCAD"
 90
        0
280
     0
281
     0
  0
CLASS
  1
RASTERVARIABLES
  2
AcDbRasterVariables
  3
ISM
 90
        0
280
     0
281
     0
  0
CLASS
  1
IMAGEDEF
  2
AcDbRasterImageDef
  3
ISM
 90
        0
280
     0
281
     0
  0
CLASS
  1
IMAGEDEF_REACTOR
  2
AcDbRasterImageDefReactor
  3
ISM
 90
        1
280
     0
281
     0
  0
CLASS
  1
IDBUFFER
  2
AcDbIdBuffer
  3
"Acad"
 90
        0
280
     0
281
     0
  0
CLASS
  1
SPATIAL_FILTER
  2
AcDbSpatialFilter
  3
"Acad"
 90
        0
280
     0
281
     0
  0
CLASS
  1
XRECORD
  2
AcDbXrecord
  3
"<Built In>"
 90
        0
280
     0
281
     0
  0
CLASS
  1
SORTENTSTABLE
  2
AcDbSortentsTable
  3
"AutoCAD"
 90
        0
280
     0
281
     0
  0
CLASS
  1
LAYER_INDEX
  2
AcDbLayerIndex
  3
"Acad"
 90
        0
280
     0
281
     0
  0
CLASS
  1
SPATIAL_INDEX
  2
AcDbSpatialIndex
  3
"Acad"
 90
        0
280
     0
281
     0
  0
CLASS
  1
OBJECT_PTR
  2
CAseDLPNTableRecord
  3
"ASE-LPNTableRecord"
 90
        1
280
     0
281
     0
  0
CLASS
  1
LAYOUT
  2
AcDbLayout
  3
"AutoCAD 2000"
 90
        1
280
     0
281
     0
  0
CLASS
  1
PLOTSETTINGS
  2
AcDbPlotSettings
  3
"AutoCAD 2000"
 90
        1
280
     0
281
     0
  0
CLASS
  1
ACDBDICTIONARYWDFLT
  2
AcDbDictionaryWithDefault
  3
"AutoCAD 2000"
 90
        1
280
     0
281
     0
  0
CLASS
  1
ACDBPLACEHOLDER
  2
AcDbPlaceHolder
  3
"AutoCAD 2000"
 90
        1
280
     0
281
     0
  0
CLASS
  1
VBA_PROJECT
  2
AcDbVbaProject
  3
"acadvba"
 90
        1
280
     0
281
     0
  0
CLASS
  1
WIPEOUT
  2
AcDbWipeout
  3
WipeOut|AutoCAD Express Tool|expresstools@autodesk.com
 90
      127
280
     0
281
     1
  0
CLASS
  1
WIPEOUTVARIABLES
  2
AcDbWipeoutVariables
  3
WipeOut|AutoCAD Express Tool|expresstools@autodesk.com
 90
        0
280
     0
281
     0
  0
CLASS
  1
RTEXT
  2
RText
  3
RText|AutoCAD Express Tool|expresstools@autodesk.com
 90
        0
280
     0
281
     1
  0
CLASS
  1
ARCALIGNEDTEXT
  2
AcDbArcAlignedText
  3
ATEXT|AutoCAD Express Tool|expresstools@autodesk.com
 90
        0
280
     0
281
     1
  0
ENDSEC
  0
SECTION
  2
TABLES
  0
TABLE
  2
VPORT
  5
8
100
AcDbSymbolTable
 70
     1
  0
VPORT
  5
25
100
AcDbSymbolTableRecord
100
AcDbViewportTableRecord
  2
*ACTIVE
 70
     0
 10
0.0
 20
0.0
 11
1.0
 21
1.0
 12
105.0
 22
148.5
 13
0.0
 23
0.0
 14
0.5
 24
0.5
 15
0.5
 25
0.5
 16
0.0
 26
0.0
 36
1.0
 17
0.0
 27
0.0
 37
0.0
 40
297.0
 41
0.707071
 42
50.0
 43
0.0
 44
0.0
 50
0.0
 51
0.0
 71
     0
 72
   100
 73
     1
 74
     1
 75
     0
 76
     0
 77
     0
 78
     0
  0
ENDTAB
  0
TABLE
  2
LTYPE
  5
5
100
AcDbSymbolTable
 70
     4
  0
LTYPE
  5
12
100
AcDbSymbolTableRecord
100
AcDbLinetypeTableRecord
  2
BYBLOCK
 70
    64
  3

 72
    65
 73
     0
 40
0.0
  0
LTYPE
  5
13
100
AcDbSymbolTableRecord
100
AcDbLinetypeTableRecord
  2
BYLAYER
 70
    64
  3

 72
    65
 73
     0
 40
0.0
  0
LTYPE
  5
14
100
AcDbSymbolTableRecord
100
AcDbLinetypeTableRecord
  2
CONTINUOUS
 70
     0
  3
Solid line
 72
    65
 73
     0
 40
0.0
  0
LTYPE
  5
32
100
AcDbSymbolTableRecord
100
AcDbLinetypeTableRecord
  2
DASHED2
 70
     0
  3
DASHED2
 72
    65
 73
     2
 40
0.375
 49
0.25
 74
     0
 49
-0.125
 74
     0
  0
ENDTAB
  0
TABLE
  2
LAYER
  5
2
100
AcDbSymbolTable
 70
     4
  0
LAYER
  5
E
100
AcDbSymbolTableRecord
100
AcDbLayerTableRecord
  2
0
 70
     0
 62
     7
  6
CONTINUOUS
  0
LAYER
  5
33
100
AcDbSymbolTableRecord
100
AcDbLayerTableRecord
  2
\U+6D88\U+5931\U+9EDE
 70
     0
 62
     7
  6
CONTINUOUS
  0
LAYER
  5
3D
100
AcDbSymbolTableRecord
100
AcDbLayerTableRecord
  2
\U+7DAD\U+5EA6
 70
     0
 62
     7
  6
CONTINUOUS
  0
LAYER
  5
42
100
AcDbSymbolTableRecord
100
AcDbLayerTableRecord
  2
DEFPOINTS
 70
     0
 62
     7
  6
CONTINUOUS
  0
ENDTAB
  0
TABLE
  2
STYLE
  5
3
100
AcDbSymbolTable
 70
     3
  0
STYLE
  5
F
100
AcDbSymbolTableRecord
100
AcDbTextStyleTableRecord
  2
STANDARD
 70
     0
 40
0.0
 41
1.0
 50
0.0
 71
     0
 42
0.2
  3
txt.shx
  4

  0
STYLE
  5
37
100
AcDbSymbolTableRecord
100
AcDbTextStyleTableRecord
  2
HORIZONTALCHINESET
 70
     0
 40
0.0
 41
1.0
 50
0.0
 71
     0
 42
0.2
  3
txt.shx
  4
chineset.shx
  0
STYLE
  5
46
100
AcDbSymbolTableRecord
100
AcDbTextStyleTableRecord
  2
_VISDIMTXTSTYLE
 70
     0
 40
0.0
 41
1.0
 50
0.0
 71
     0
 42
0.2
  3
arial.ttf
  4

1001
ACAD
1000
Arial
1071
       34
  0
ENDTAB
  0
TABLE
  2
VIEW
  5
6
100
AcDbSymbolTable
 70
     0
  0
ENDTAB
  0
TABLE
  2
UCS
  5
7
100
AcDbSymbolTable
 70
     0
  0
ENDTAB
  0
TABLE
  2
APPID
  5
9
100
AcDbSymbolTable
 70
     1
  0
APPID
  5
10
100
AcDbSymbolTableRecord
100
AcDbRegAppTableRecord
  2
ACAD
 70
     0
  0
ENDTAB
  0
TABLE
  2
DIMSTYLE
  5
A
100
AcDbSymbolTable
 70
     1
  0
DIMSTYLE
105
1D
102
{ACAD_REACTORS
330
4B
330
5A
330
6B
330
7A
330
85
330
92
330
A1
330
B0
330
BF
330
CE
330
DB
330
E8
102
}
100
AcDbSymbolTableRecord
100
AcDbDimStyleTableRecord
  2
STANDARD
 70
     0
  3

  4

  5

  6

  7

 40
1.0
 41
0.18
 42
0.0625
 43
0.38
 44
0.18
 45
0.0
 46
0.0
 47
0.0
 48
0.0
 71
     0
 72
     0
 73
     1
 74
     1
 75
     0
 76
     0
 77
     1
 78
     0
140
0.18
141
0.09
142
0.0
143
25.4
144
1.0
145
0.0
146
1.0
147
0.09
170
     0
171
     2
172
     0
173
     0
174
     0
175
     0
176
     0
177
     0
178
     0
270
     2
271
     4
272
     2
273
     2
274
     2
275
     0
280
     0
281
     0
282
     0
283
     1
284
     0
285
     0
286
     0
287
     3
288
     0
340
46
  0
ENDTAB
  0
TABLE
  2
BLOCK_RECORD
  5
1
100
AcDbSymbolTable
 70
    15
  0
BLOCK_RECORD
  5
18
100
AcDbSymbolTableRecord
100
AcDbBlockTableRecord
  2
*MODEL_SPACE
  0
BLOCK_RECORD
  5
15
100
AcDbSymbolTableRecord
100
AcDbBlockTableRecord
  2
*PAPER_SPACE
  0
BLOCK_RECORD
  5
3B
100
AcDbSymbolTableRecord
100
AcDbBlockTableRecord
  2
*D0
  0
BLOCK_RECORD
  5
4C
100
AcDbSymbolTableRecord
100
AcDbBlockTableRecord
  2
*D1
  0
BLOCK_RECORD
  5
5D
100
AcDbSymbolTableRecord
100
AcDbBlockTableRecord
  2
*D2
  0
BLOCK_RECORD
  5
6C
100
AcDbSymbolTableRecord
100
AcDbBlockTableRecord
  2
*D3
  0
BLOCK_RECORD
  5
7B
100
AcDbSymbolTableRecord
100
AcDbBlockTableRecord
  2
*D4
  0
BLOCK_RECORD
  5
88
100
AcDbSymbolTableRecord
100
AcDbBlockTableRecord
  2
*D5
  0
BLOCK_RECORD
  5
93
100
AcDbSymbolTableRecord
100
AcDbBlockTableRecord
  2
*D6
  0
BLOCK_RECORD
  5
A2
100
AcDbSymbolTableRecord
100
AcDbBlockTableRecord
  2
*D7
  0
BLOCK_RECORD
  5
B1
100
AcDbSymbolTableRecord
100
AcDbBlockTableRecord
  2
*D8
  0
BLOCK_RECORD
  5
C0
100
AcDbSymbolTableRecord
100
AcDbBlockTableRecord
  2
*D9
  0
BLOCK_RECORD
  5
D1
100
AcDbSymbolTableRecord
100
AcDbBlockTableRecord
  2
*D10
  0
BLOCK_RECORD
  5
DE
100
AcDbSymbolTableRecord
100
AcDbBlockTableRecord
  2
*D11
  0
BLOCK_RECORD
  5
EF
100
AcDbSymbolTableRecord
100
AcDbBlockTableRecord
  2
\U+6D88\U+5931\U+9EDE
  0
BLOCK_RECORD
  5
F6
100
AcDbSymbolTableRecord
100
AcDbBlockTableRecord
  2
\U+77E9\U+5F62
  0
BLOCK_RECORD
  5
FB
100
AcDbSymbolTableRecord
100
AcDbBlockTableRecord
  2
\U+5713\U+5F62
  0
ENDTAB
  0
ENDSEC
  0
SECTION
  2
BLOCKS
  0
BLOCK
  5
19
100
AcDbEntity
  8
0
100
AcDbBlockBegin
  2
*MODEL_SPACE
 70
     0
 10
0.0
 20
0.0
 30
0.0
  3
*MODEL_SPACE
  1

  0
ENDBLK
  5
1A
100
AcDbEntity
  8
0
100
AcDbBlockEnd
  0
BLOCK
  5
16
100
AcDbEntity
 67
     1
  8
0
100
AcDbBlockBegin
  2
*PAPER_SPACE
 70
     0
 10
0.0
 20
0.0
 30
0.0
  3
*PAPER_SPACE
  1

  0
ENDBLK
  5
17
100
AcDbEntity
 67
     1
  8
0
100
AcDbBlockEnd
  0
BLOCK
  5
3C
100
AcDbEntity
  8
0
100
AcDbBlockBegin
  2
*D0
 70
    66
 10
0.0
 20
0.0
 30
0.0
  3
*D0
  1

  0
LWPOLYLINE
  5
3E
100
AcDbEntity
  8
\U+7DAD\U+5EA6
  6
CONTINUOUS
100
AcDbPolyline
 90
        2
 70
     1
 10
32.801165
 20
186.638375
 10
32.801165
 20
178.227264
  0
LWPOLYLINE
  5
3F
100
AcDbEntity
  8
\U+7DAD\U+5EA6
  6
CONTINUOUS
100
AcDbPolyline
 90
        2
 70
     1
 10
37.201165
 20
186.638375
 10
37.201165
 20
178.727264
  0
LINE
  5
40
100
AcDbEntity
  8
\U+7DAD\U+5EA6
  6
CONTINUOUS
100
AcDbLine
 10
28.569525
 20
183.816153
 30
0.0
 11
32.801165
 21
183.816153
 31
0.0
  0
LINE
  5
41
100
AcDbEntity
  8
\U+7DAD\U+5EA6
  6
CONTINUOUS
100
AcDbLine
 10
41.432805
 20
183.816153
 30
0.0
 11
37.201165
 21
183.816153
 31
0.0
  0
POINT
  5
43
100
AcDbEntity
  8
DEFPOINTS
100
AcDbPoint
 10
37.201165
 20
183.816153
 30
0.0
  0
POINT
  5
44
100
AcDbEntity
  8
DEFPOINTS
100
AcDbPoint
 10
32.801165
 20
176.816153
 30
0.0
  0
POINT
  5
45
100
AcDbEntity
  8
DEFPOINTS
100
AcDbPoint
 10
37.201165
 20
177.316153
 30
0.0
  0
MTEXT
  5
47
100
AcDbEntity
  8
0
100
AcDbMText
 10
35.201165
 20
188.429481
 30
0.0
 40
2.054655
 41
8.063477
 71
     5
 72
     1
  1
4.40
  7
_VISDIMTXTSTYLE
  0
SOLID
  5
48
100
AcDbEntity
  8
0
100
AcDbTrace
 10
32.801165
 20
183.816153
 30
0.0
 11
28.229165
 21
183.054153
 31
0.0
 12
28.229165
 22
184.578153
 32
0.0
 13
28.229165
 23
184.578153
 33
0.0
  0
SOLID
  5
49
100
AcDbEntity
  8
0
100
AcDbTrace
 10
37.201165
 20
183.816153
 30
0.0
 11
41.773165
 21
183.054153
 31
0.0
 12
41.773165
 22
184.578153
 32
0.0
 13
41.773165
 23
184.578153
 33
0.0
  0
ENDBLK
  5
4A
100
AcDbEntity
  8
0
100
AcDbBlockEnd
  0
BLOCK
  5
4D
100
AcDbEntity
  8
0
100
AcDbBlockBegin
  2
*D1
 70
    66
 10
0.0
 20
0.0
 30
0.0
  3
*D1
  1

  0
LWPOLYLINE
  5
4E
100
AcDbEntity
  8
\U+7DAD\U+5EA6
  6
CONTINUOUS
100
AcDbPolyline
 90
        2
 70
     1
 10
24.178942
 20
174.016153
 10
32.590053
 20
174.016153
  0
LWPOLYLINE
  5
4F
100
AcDbEntity
  8
\U+7DAD\U+5EA6
  6
CONTINUOUS
100
AcDbPolyline
 90
        2
 70
     1
 10
24.178942
 20
178.616153
 10
32.590053
 20
178.616153
  0
LINE
  5
50
100
AcDbEntity
  8
\U+7DAD\U+5EA6
  6
CONTINUOUS
100
AcDbLine
 10
27.001165
 20
169.784513
 30
0.0
 11
27.001165
 21
174.016153
 31
0.0
  0
LINE
  5
51
100
AcDbEntity
  8
\U+7DAD\U+5EA6
  6
CONTINUOUS
100
AcDbLine
 10
27.001165
 20
182.847793
 30
0.0
 11
27.001165
 21
178.616153
 31
0.0
  0
LWPOLYLINE
  5
52
100
AcDbEntity
  8
\U+7DAD\U+5EA6
  6
CONTINUOUS
100
AcDbPolyline
 90
        2
 70
     1
 10
27.001165
 20
174.016153
 10
27.001165
 20
167.096688
  0
POINT
  5
53
100
AcDbEntity
  8
DEFPOINTS
100
AcDbPoint
 10
27.001165
 20
178.616153
 30
0.0
  0
POINT
  5
54
100
AcDbEntity
  8
DEFPOINTS
100
AcDbPoint
 10
34.001165
 20
174.016153
 30
0.0
  0
POINT
  5
55
100
AcDbEntity
  8
DEFPOINTS
100
AcDbPoint
 10
34.001165
 20
178.616153
 30
0.0
  0
MTEXT
  5
56
100
AcDbEntity
  8
0
100
AcDbMText
 10
23.687837
 20
167.096688
 30
0.0
 40
2.054655
 41
8.063477
 71
     5
 72
     1
  1
4.60
  7
_VISDIMTXTSTYLE
 11
0.0
 21
1.0
 31
0.0
  0
SOLID
  5
57
100
AcDbEntity
  8
0
100
AcDbTrace
 10
27.001165
 20
174.016153
 30
0.0
 11
27.763165
 21
169.444153
 31
0.0
 12
26.239165
 22
169.444153
 32
0.0
 13
26.239165
 23
169.444153
 33
0.0
  0
SOLID
  5
58
100
AcDbEntity
  8
0
100
AcDbTrace
 10
27.001165
 20
178.616153
 30
0.0
 11
27.763165
 21
183.188153
 31
0.0
 12
26.239165
 22
183.188153
 32
0.0
 13
26.239165
 23
183.188153
 33
0.0
  0
ENDBLK
  5
59
100
AcDbEntity
  8
0
100
AcDbBlockEnd
  0
BLOCK
  5
5E
100
AcDbEntity
  8
0
100
AcDbBlockBegin
  2
*D2
 70
    66
 10
0.0
 20
0.0
 30
0.0
  3
*D2
  1

  0
LWPOLYLINE
  5
5F
100
AcDbEntity
  8
\U+7DAD\U+5EA6
  6
CONTINUOUS
100
AcDbPolyline
 90
        2
 70
     1
 10
24.378942
 20
124.616153
 10
32.790053
 20
124.616153
  0
LWPOLYLINE
  5
60
100
AcDbEntity
  8
\U+7DAD\U+5EA6
  6
CONTINUOUS
100
AcDbPolyline
 90
        2
 70
     1
 10
24.378942
 20
129.216153
 10
32.790053
 20
129.216153
  0
LINE
  5
61
100
AcDbEntity
  8
\U+7DAD\U+5EA6
  6
CONTINUOUS
100
AcDbLine
 10
27.201165
 20
120.384513
 30
0.0
 11
27.201165
 21
124.616153
 31
0.0
  0
LINE
  5
62
100
AcDbEntity
  8
\U+7DAD\U+5EA6
  6
CONTINUOUS
100
AcDbLine
 10
27.201165
 20
133.447793
 30
0.0
 11
27.201165
 21
129.216153
 31
0.0
  0
LWPOLYLINE
  5
63
100
AcDbEntity
  8
\U+7DAD\U+5EA6
  6
CONTINUOUS
100
AcDbPolyline
 90
        2
 70
     1
 10
27.201165
 20
124.616153
 10
27.201165
 20
117.696688
  0
POINT
  5
64
100
AcDbEntity
  8
DEFPOINTS
100
AcDbPoint
 10
27.201165
 20
129.216153
 30
0.0
  0
POINT
  5
65
100
AcDbEntity
  8
DEFPOINTS
100
AcDbPoint
 10
34.201165
 20
124.616153
 30
0.0
  0
POINT
  5
66
100
AcDbEntity
  8
DEFPOINTS
100
AcDbPoint
 10
34.201165
 20
129.216153
 30
0.0
  0
MTEXT
  5
67
100
AcDbEntity
  8
0
100
AcDbMText
 10
23.887837
 20
117.696688
 30
0.0
 40
2.054655
 41
8.063477
 71
     5
 72
     1
  1
4.60
  7
_VISDIMTXTSTYLE
 11
0.0
 21
1.0
 31
0.0
  0
SOLID
  5
68
100
AcDbEntity
  8
0
100
AcDbTrace
 10
27.201165
 20
124.616153
 30
0.0
 11
27.963165
 21
120.044153
 31
0.0
 12
26.439165
 22
120.044153
 32
0.0
 13
26.439165
 23
120.044153
 33
0.0
  0
SOLID
  5
69
100
AcDbEntity
  8
0
100
AcDbTrace
 10
27.201165
 20
129.216153
 30
0.0
 11
27.963165
 21
133.788153
 31
0.0
 12
26.439165
 22
133.788153
 32
0.0
 13
26.439165
 23
133.788153
 33
0.0
  0
ENDBLK
  5
6A
100
AcDbEntity
  8
0
100
AcDbBlockEnd
  0
BLOCK
  5
6D
100
AcDbEntity
  8
0
100
AcDbBlockBegin
  2
*D3
 70
    66
 10
0.0
 20
0.0
 30
0.0
  3
*D3
  1

  0
LWPOLYLINE
  5
6E
100
AcDbEntity
  8
\U+7DAD\U+5EA6
  6
CONTINUOUS
100
AcDbPolyline
 90
        2
 70
     1
 10
32.801165
 20
124.538376
 10
32.801165
 20
118.727264
  0
LWPOLYLINE
  5
6F
100
AcDbEntity
  8
\U+7DAD\U+5EA6
  6
CONTINUOUS
100
AcDbPolyline
 90
        2
 70
     1
 10
37.201165
 20
124.538376
 10
37.201165
 20
118.727264
  0
LINE
  5
70
100
AcDbEntity
  8
\U+7DAD\U+5EA6
  6
CONTINUOUS
100
AcDbLine
 10
28.569525
 20
121.716153
 30
0.0
 11
32.801165
 21
121.716153
 31
0.0
  0
LINE
  5
71
100
AcDbEntity
  8
\U+7DAD\U+5EA6
  6
CONTINUOUS
100
AcDbLine
 10
41.432805
 20
121.716153
 30
0.0
 11
37.201165
 21
121.716153
 31
0.0
  0
LWPOLYLINE
  5
72
100
AcDbEntity
  8
\U+7DAD\U+5EA6
  6
CONTINUOUS
100
AcDbPolyline
 90
        2
 70
     1
 10
35.001165
 20
121.716153
 10
35.801165
 20
114.116153
  0
POINT
  5
73
100
AcDbEntity
  8
DEFPOINTS
100
AcDbPoint
 10
37.201165
 20
121.716153
 30
0.0
  0
POINT
  5
74
100
AcDbEntity
  8
DEFPOINTS
100
AcDbPoint
 10
32.801165
 20
117.316153
 30
0.0
  0
POINT
  5
75
100
AcDbEntity
  8
DEFPOINTS
100
AcDbPoint
 10
37.201165
 20
117.316153
 30
0.0
  0
MTEXT
  5
76
100
AcDbEntity
  8
0
100
AcDbMText
 10
35.801165
 20
117.429481
 30
0.0
 40
2.054655
 41
8.063477
 71
     5
 72
     1
  1
4.40
  7
_VISDIMTXTSTYLE
  0
SOLID
  5
77
100
AcDbEntity
  8
0
100
AcDbTrace
 10
32.801165
 20
121.716153
 30
0.0
 11
28.229165
 21
120.954153
 31
0.0
 12
28.229165
 22
122.478153
 32
0.0
 13
28.229165
 23
122.478153
 33
0.0
  0
SOLID
  5
78
100
AcDbEntity
  8
0
100
AcDbTrace
 10
37.201165
 20
121.716153
 30
0.0
 11
41.773165
 21
120.954153
 31
0.0
 12
41.773165
 22
122.478153
 32
0.0
 13
41.773165
 23
122.478153
 33
0.0
  0
ENDBLK
  5
79
100
AcDbEntity
  8
0
100
AcDbBlockEnd
  0
BLOCK
  5
7C
100
AcDbEntity
  8
0
100
AcDbBlockBegin
  2
*D4
 70
    66
 10
0.0
 20
0.0
 30
0.0
  3
*D4
  1

  0
LWPOLYLINE
  5
7D
100
AcDbEntity
  8
\U+7DAD\U+5EA6
  6
CONTINUOUS
100
AcDbPolyline
 90
        2
 70
     1
 10
36.201165
 20
174.116153
 10
38.201165
 20
174.116153
  0
LWPOLYLINE
  5
7E
100
AcDbEntity
  8
\U+7DAD\U+5EA6
  6
CONTINUOUS
100
AcDbPolyline
 90
        2
 70
     1
 10
37.201165
 20
173.116153
 10
37.201165
 20
175.116153
  0
LWPOLYLINE
  5
7F
100
AcDbEntity
  8
\U+7DAD\U+5EA6
  6
CONTINUOUS
100
AcDbPolyline
 90
        4
 70
     0
 10
48.801165
 20
183.116153
 10
43.801165
 20
183.116153
 10
37.201165
 20
174.116153
 10
38.383892
 20
175.728963
  0
POINT
  5
80
100
AcDbEntity
  8
DEFPOINTS
100
AcDbPoint
 10
37.201165
 20
174.116153
 30
0.0
  0
POINT
  5
81
100
AcDbEntity
  8
DEFPOINTS
100
AcDbPoint
 10
38.383892
 20
175.728963
 30
0.0
  0
MTEXT
  5
82
100
AcDbEntity
  8
0
100
AcDbMText
 10
48.801165
 20
186.429481
 30
0.0
 40
2.054655
 41
11.817172
 71
     5
 72
     1
  1
R2.00
  7
_VISDIMTXTSTYLE
  0
SOLID
  5
83
100
AcDbEntity
  8
0
100
AcDbTrace
 10
38.383892
 20
175.728963
 30
0.0
 11
35.065697
 21
172.492699
 31
0.0
 12
36.294658
 22
171.591461
 32
0.0
 13
36.294658
 23
171.591461
 33
0.0
  0
ENDBLK
  5
84
100
AcDbEntity
  8
0
100
AcDbBlockEnd
  0
BLOCK
  5
89
100
AcDbEntity
  8
0
100
AcDbBlockBegin
  2
*D5
 70
    66
 10
0.0
 20
0.0
 30
0.0
  3
*D5
  1

  0
LWPOLYLINE
  5
8A
100
AcDbEntity
  8
\U+7DAD\U+5EA6
  6
CONTINUOUS
100
AcDbPolyline
 90
        2
 70
     1
 10
36.201165
 20
129.316153
 10
38.201165
 20
129.316153
  0
LWPOLYLINE
  5
8B
100
AcDbEntity
  8
\U+7DAD\U+5EA6
  6
CONTINUOUS
100
AcDbPolyline
 90
        2
 70
     1
 10
37.201165
 20
128.316153
 10
37.201165
 20
130.316153
  0
LWPOLYLINE
  5
8C
100
AcDbEntity
  8
\U+7DAD\U+5EA6
  6
CONTINUOUS
100
AcDbPolyline
 90
        4
 70
     0
 10
22.801165
 20
136.216153
 10
27.801165
 20
136.216153
 10
37.201165
 20
129.316153
 10
35.5889
 20
130.499624
  0
POINT
  5
8D
100
AcDbEntity
  8
DEFPOINTS
100
AcDbPoint
 10
37.201165
 20
129.316153
 30
0.0
  0
POINT
  5
8E
100
AcDbEntity
  8
DEFPOINTS
100
AcDbPoint
 10
35.5889
 20
130.499624
 30
0.0
  0
MTEXT
  5
8F
100
AcDbEntity
  8
0
100
AcDbMText
 10
22.801165
 20
132.902826
 30
0.0
 40
2.054655
 41
11.817172
 71
     5
 72
     1
  1
R2.00
  7
_VISDIMTXTSTYLE
  0
SOLID
  5
90
100
AcDbEntity
  8
0
100
AcDbTrace
 10
35.5889
 20
130.499624
 30
0.0
 11
38.823634
 21
127.179937
 31
0.0
 12
39.725439
 22
128.408483
 32
0.0
 13
39.725439
 23
128.408483
 33
0.0
  0
ENDBLK
  5
91
100
AcDbEntity
  8
0
100
AcDbBlockEnd
  0
BLOCK
  5
94
100
AcDbEntity
  8
0
100
AcDbBlockBegin
  2
*D6
 70
    66
 10
0.0
 20
0.0
 30
0.0
  3
*D6
  1

  0
LWPOLYLINE
  5
95
100
AcDbEntity
  8
\U+7DAD\U+5EA6
  6
CONTINUOUS
100
AcDbPolyline
 90
        2
 70
     1
 10
173.401165
 20
186.748375
 10
173.401165
 20
178.927264
  0
LWPOLYLINE
  5
96
100
AcDbEntity
  8
\U+7DAD\U+5EA6
  6
CONTINUOUS
100
AcDbPolyline
 90
        2
 70
     1
 10
177.801165
 20
186.748375
 10
177.801165
 20
178.927264
  0
LINE
  5
97
100
AcDbEntity
  8
\U+7DAD\U+5EA6
  6
CONTINUOUS
100
AcDbLine
 10
169.169525
 20
183.926153
 30
0.0
 11
173.401165
 21
183.926153
 31
0.0
  0
LINE
  5
98
100
AcDbEntity
  8
\U+7DAD\U+5EA6
  6
CONTINUOUS
100
AcDbLine
 10
182.032805
 20
183.926153
 30
0.0
 11
177.801165
 21
183.926153
 31
0.0
  0
LWPOLYLINE
  5
99
100
AcDbEntity
  8
\U+7DAD\U+5EA6
  6
CONTINUOUS
100
AcDbPolyline
 90
        2
 70
     1
 10
173.401165
 20
183.926153
 10
166.481699
 20
183.926153
  0
POINT
  5
9A
100
AcDbEntity
  8
DEFPOINTS
100
AcDbPoint
 10
177.801165
 20
183.926153
 30
0.0
  0
POINT
  5
9B
100
AcDbEntity
  8
DEFPOINTS
100
AcDbPoint
 10
173.401165
 20
177.516153
 30
0.0
  0
POINT
  5
9C
100
AcDbEntity
  8
DEFPOINTS
100
AcDbPoint
 10
177.801165
 20
177.516153
 30
0.0
  0
MTEXT
  5
9D
100
AcDbEntity
  8
0
100
AcDbMText
 10
166.481699
 20
187.239481
 30
0.0
 40
2.054655
 41
8.063477
 71
     5
 72
     1
  1
4.40
  7
_VISDIMTXTSTYLE
  0
SOLID
  5
9E
100
AcDbEntity
  8
0
100
AcDbTrace
 10
173.401165
 20
183.926153
 30
0.0
 11
168.829165
 21
183.164153
 31
0.0
 12
168.829165
 22
184.688153
 32
0.0
 13
168.829165
 23
184.688153
 33
0.0
  0
SOLID
  5
9F
100
AcDbEntity
  8
0
100
AcDbTrace
 10
177.801165
 20
183.926153
 30
0.0
 11
182.373165
 21
183.164153
 31
0.0
 12
182.373165
 22
184.688153
 32
0.0
 13
182.373165
 23
184.688153
 33
0.0
  0
ENDBLK
  5
A0
100
AcDbEntity
  8
0
100
AcDbBlockEnd
  0
BLOCK
  5
A3
100
AcDbEntity
  8
0
100
AcDbBlockBegin
  2
*D7
 70
    66
 10
0.0
 20
0.0
 30
0.0
  3
*D7
  1

  0
LWPOLYLINE
  5
A4
100
AcDbEntity
  8
\U+7DAD\U+5EA6
  6
CONTINUOUS
100
AcDbPolyline
 90
        2
 70
     1
 10
177.778942
 20
173.916153
 10
184.190053
 20
173.916153
  0
LWPOLYLINE
  5
A5
100
AcDbEntity
  8
\U+7DAD\U+5EA6
  6
CONTINUOUS
100
AcDbPolyline
 90
        2
 70
     1
 10
177.778942
 20
178.516153
 10
184.190053
 20
178.516153
  0
LINE
  5
A6
100
AcDbEntity
  8
\U+7DAD\U+5EA6
  6
CONTINUOUS
100
AcDbLine
 10
180.601165
 20
169.684513
 30
0.0
 11
180.601165
 21
173.916153
 31
0.0
  0
LINE
  5
A7
100
AcDbEntity
  8
\U+7DAD\U+5EA6
  6
CONTINUOUS
100
AcDbLine
 10
180.601165
 20
182.747793
 30
0.0
 11
180.601165
 21
178.516153
 31
0.0
  0
LWPOLYLINE
  5
A8
100
AcDbEntity
  8
\U+7DAD\U+5EA6
  6
CONTINUOUS
100
AcDbPolyline
 90
        2
 70
     1
 10
180.601165
 20
173.916153
 10
180.601165
 20
166.996688
  0
POINT
  5
A9
100
AcDbEntity
  8
DEFPOINTS
100
AcDbPoint
 10
180.601165
 20
178.516153
 30
0.0
  0
POINT
  5
AA
100
AcDbEntity
  8
DEFPOINTS
100
AcDbPoint
 10
185.601165
 20
173.916153
 30
0.0
  0
POINT
  5
AB
100
AcDbEntity
  8
DEFPOINTS
100
AcDbPoint
 10
185.601165
 20
178.516153
 30
0.0
  0
MTEXT
  5
AC
100
AcDbEntity
  8
0
100
AcDbMText
 10
177.287837
 20
166.996688
 30
0.0
 40
2.054655
 41
8.063477
 71
     5
 72
     1
  1
4.60
  7
_VISDIMTXTSTYLE
 11
0.0
 21
1.0
 31
0.0
  0
SOLID
  5
AD
100
AcDbEntity
  8
0
100
AcDbTrace
 10
180.601165
 20
173.916153
 30
0.0
 11
181.363165
 21
169.344153
 31
0.0
 12
179.839165
 22
169.344153
 32
0.0
 13
179.839165
 23
169.344153
 33
0.0
  0
SOLID
  5
AE
100
AcDbEntity
  8
0
100
AcDbTrace
 10
180.601165
 20
178.516153
 30
0.0
 11
181.363165
 21
183.088153
 31
0.0
 12
179.839165
 22
183.088153
 32
0.0
 13
179.839165
 23
183.088153
 33
0.0
  0
ENDBLK
  5
AF
100
AcDbEntity
  8
0
100
AcDbBlockEnd
  0
BLOCK
  5
B2
100
AcDbEntity
  8
0
100
AcDbBlockBegin
  2
*D8
 70
    66
 10
0.0
 20
0.0
 30
0.0
  3
*D8
  1

  0
LWPOLYLINE
  5
B3
100
AcDbEntity
  8
\U+7DAD\U+5EA6
  6
CONTINUOUS
100
AcDbPolyline
 90
        2
 70
     1
 10
173.401165
 20
124.388375
 10
173.401165
 20
115.477264
  0
LWPOLYLINE
  5
B4
100
AcDbEntity
  8
\U+7DAD\U+5EA6
  6
CONTINUOUS
100
AcDbPolyline
 90
        2
 70
     1
 10
177.801165
 20
124.388375
 10
177.801165
 20
116.027264
  0
LINE
  5
B5
100
AcDbEntity
  8
\U+7DAD\U+5EA6
  6
CONTINUOUS
100
AcDbLine
 10
169.169525
 20
121.566153
 30
0.0
 11
173.401165
 21
121.566153
 31
0.0
  0
LINE
  5
B6
100
AcDbEntity
  8
\U+7DAD\U+5EA6
  6
CONTINUOUS
100
AcDbLine
 10
182.032805
 20
121.566153
 30
0.0
 11
177.801165
 21
121.566153
 31
0.0
  0
LWPOLYLINE
  5
B7
100
AcDbEntity
  8
\U+7DAD\U+5EA6
  6
CONTINUOUS
100
AcDbPolyline
 90
        2
 70
     1
 10
175.601165
 20
121.566153
 10
175.051165
 20
109.066153
  0
POINT
  5
B8
100
AcDbEntity
  8
DEFPOINTS
100
AcDbPoint
 10
177.801165
 20
121.566153
 30
0.0
  0
POINT
  5
B9
100
AcDbEntity
  8
DEFPOINTS
100
AcDbPoint
 10
173.401165
 20
114.066153
 30
0.0
  0
POINT
  5
BA
100
AcDbEntity
  8
DEFPOINTS
100
AcDbPoint
 10
177.801165
 20
114.616153
 30
0.0
  0
MTEXT
  5
BB
100
AcDbEntity
  8
0
100
AcDbMText
 10
175.051165
 20
112.379481
 30
0.0
 40
2.054655
 41
8.063477
 71
     5
 72
     1
  1
4.40
  7
_VISDIMTXTSTYLE
  0
SOLID
  5
BC
100
AcDbEntity
  8
0
100
AcDbTrace
 10
173.401165
 20
121.566153
 30
0.0
 11
168.829165
 21
120.804153
 31
0.0
 12
168.829165
 22
122.328153
 32
0.0
 13
168.829165
 23
122.328153
 33
0.0
  0
SOLID
  5
BD
100
AcDbEntity
  8
0
100
AcDbTrace
 10
177.801165
 20
121.566153
 30
0.0
 11
182.373165
 21
120.804153
 31
0.0
 12
182.373165
 22
122.328153
 32
0.0
 13
182.373165
 23
122.328153
 33
0.0
  0
ENDBLK
  5
BE
100
AcDbEntity
  8
0
100
AcDbBlockEnd
  0
BLOCK
  5
C1
100
AcDbEntity
  8
0
100
AcDbBlockBegin
  2
*D9
 70
    66
 10
0.0
 20
0.0
 30
0.0
  3
*D9
  1

  0
LWPOLYLINE
  5
C2
100
AcDbEntity
  8
\U+7DAD\U+5EA6
  6
CONTINUOUS
100
AcDbPolyline
 90
        2
 70
     1
 10
176.978942
 20
124.716153
 10
185.390053
 20
124.716153
  0
LWPOLYLINE
  5
C3
100
AcDbEntity
  8
\U+7DAD\U+5EA6
  6
CONTINUOUS
100
AcDbPolyline
 90
        2
 70
     1
 10
176.978942
 20
129.316153
 10
185.390053
 20
129.316153
  0
LINE
  5
C4
100
AcDbEntity
  8
\U+7DAD\U+5EA6
  6
CONTINUOUS
100
AcDbLine
 10
179.801165
 20
120.484513
 30
0.0
 11
179.801165
 21
124.716153
 31
0.0
  0
LINE
  5
C5
100
AcDbEntity
  8
\U+7DAD\U+5EA6
  6
CONTINUOUS
100
AcDbLine
 10
179.801165
 20
133.547793
 30
0.0
 11
179.801165
 21
129.316153
 31
0.0
  0
LWPOLYLINE
  5
C6
100
AcDbEntity
  8
\U+7DAD\U+5EA6
  6
CONTINUOUS
100
AcDbPolyline
 90
        2
 70
     1
 10
179.801165
 20
127.016153
 10
192.801164
 20
126.441153
  0
POINT
  5
C7
100
AcDbEntity
  8
DEFPOINTS
100
AcDbPoint
 10
179.801165
 20
129.316153
 30
0.0
  0
POINT
  5
C8
100
AcDbEntity
  8
DEFPOINTS
100
AcDbPoint
 10
186.801165
 20
124.716153
 30
0.0
  0
POINT
  5
C9
100
AcDbEntity
  8
DEFPOINTS
100
AcDbPoint
 10
186.801165
 20
129.316153
 30
0.0
  0
MTEXT
  5
CA
100
AcDbEntity
  8
0
100
AcDbMText
 10
189.487837
 20
126.441153
 30
0.0
 40
2.054655
 41
8.063477
 71
     5
 72
     1
  1
4.60
  7
_VISDIMTXTSTYLE
 11
0.0
 21
1.0
 31
0.0
  0
SOLID
  5
CB
100
AcDbEntity
  8
0
100
AcDbTrace
 10
179.801165
 20
124.716153
 30
0.0
 11
180.563165
 21
120.144153
 31
0.0
 12
179.039165
 22
120.144153
 32
0.0
 13
179.039165
 23
120.144153
 33
0.0
  0
SOLID
  5
CC
100
AcDbEntity
  8
0
100
AcDbTrace
 10
179.801165
 20
129.316153
 30
0.0
 11
180.563165
 21
133.888153
 31
0.0
 12
179.039165
 22
133.888153
 32
0.0
 13
179.039165
 23
133.888153
 33
0.0
  0
ENDBLK
  5
CD
100
AcDbEntity
  8
0
100
AcDbBlockEnd
  0
BLOCK
  5
D2
100
AcDbEntity
  8
0
100
AcDbBlockBegin
  2
*D10
 70
    66
 10
0.0
 20
0.0
 30
0.0
  3
*D10
  1

  0
LWPOLYLINE
  5
D3
100
AcDbEntity
  8
\U+7DAD\U+5EA6
  6
CONTINUOUS
100
AcDbPolyline
 90
        2
 70
     1
 10
172.401165
 20
129.116153
 10
174.401165
 20
129.116153
  0
LWPOLYLINE
  5
D4
100
AcDbEntity
  8
\U+7DAD\U+5EA6
  6
CONTINUOUS
100
AcDbPolyline
 90
        2
 70
     1
 10
173.401165
 20
128.116153
 10
173.401165
 20
130.116153
  0
LWPOLYLINE
  5
D5
100
AcDbEntity
  8
\U+7DAD\U+5EA6
  6
CONTINUOUS
100
AcDbPolyline
 90
        4
 70
     0
 10
158.901165
 20
118.616153
 10
163.901165
 20
118.616153
 10
173.401165
 20
129.116153
 10
172.059338
 20
127.633082
  0
POINT
  5
D6
100
AcDbEntity
  8
DEFPOINTS
100
AcDbPoint
 10
173.401165
 20
129.116153
 30
0.0
  0
POINT
  5
D7
100
AcDbEntity
  8
DEFPOINTS
100
AcDbPoint
 10
172.059338
 20
127.633082
 30
0.0
  0
MTEXT
  5
D8
100
AcDbEntity
  8
0
100
AcDbMText
 10
158.901165
 20
115.302826
 30
0.0
 40
2.054655
 41
11.817172
 71
     5
 72
     1
  1
R2.00
  7
_VISDIMTXTSTYLE
  0
SOLID
  5
D9
100
AcDbEntity
  8
0
100
AcDbTrace
 10
172.059338
 20
127.633082
 30
0.0
 11
175.691804
 21
130.512147
 31
0.0
 12
174.561703
 22
131.534619
 32
0.0
 13
174.561703
 23
131.534619
 33
0.0
  0
ENDBLK
  5
DA
100
AcDbEntity
  8
0
100
AcDbBlockEnd
  0
BLOCK
  5
DF
100
AcDbEntity
  8
0
100
AcDbBlockBegin
  2
*D11
 70
    66
 10
0.0
 20
0.0
 30
0.0
  3
*D11
  1

  0
LWPOLYLINE
  5
E0
100
AcDbEntity
  8
\U+7DAD\U+5EA6
  6
CONTINUOUS
100
AcDbPolyline
 90
        2
 70
     1
 10
172.401165
 20
173.916153
 10
174.401165
 20
173.916153
  0
LWPOLYLINE
  5
E1
100
AcDbEntity
  8
\U+7DAD\U+5EA6
  6
CONTINUOUS
100
AcDbPolyline
 90
        2
 70
     1
 10
173.401165
 20
172.916153
 10
173.401165
 20
174.916153
  0
LWPOLYLINE
  5
E2
100
AcDbEntity
  8
\U+7DAD\U+5EA6
  6
CONTINUOUS
100
AcDbPolyline
 90
        4
 70
     0
 10
154.301165
 20
183.616153
 10
159.301165
 20
183.616153
 10
173.401165
 20
173.916153
 10
171.753422
 20
175.049707
  0
POINT
  5
E3
100
AcDbEntity
  8
DEFPOINTS
100
AcDbPoint
 10
173.401165
 20
173.916153
 30
0.0
  0
POINT
  5
E4
100
AcDbEntity
  8
DEFPOINTS
100
AcDbPoint
 10
171.753422
 20
175.049707
 30
0.0
  0
MTEXT
  5
E5
100
AcDbEntity
  8
0
100
AcDbMText
 10
154.301165
 20
180.302826
 30
0.0
 40
2.054655
 41
11.817172
 71
     5
 72
     1
  1
R2.00
  7
_VISDIMTXTSTYLE
  0
SOLID
  5
E6
100
AcDbEntity
  8
0
100
AcDbTrace
 10
171.753422
 20
175.049707
 30
0.0
 11
175.088278
 21
171.830613
 31
0.0
 12
175.952046
 22
173.086193
 32
0.0
 13
175.952046
 23
173.086193
 33
0.0
  0
ENDBLK
  5
E7
100
AcDbEntity
  8
0
100
AcDbBlockEnd
  0
BLOCK
  5
F0
100
AcDbEntity
  8
0
100
AcDbBlockBegin
  2
\U+6D88\U+5931\U+9EDE
 70
     0
 10
0.0
 20
0.0
 30
0.0
  3
\U+6D88\U+5931\U+9EDE
  1

  0
LINE
  5
F1
100
AcDbEntity
  8
\U+6D88\U+5931\U+9EDE
  6
DASHED2
100
AcDbLine
 10
15.0
 20
-25.0
 30
0.0
 11
15.0
 21
75.0
 31
0.0
  0
LINE
  5
F2
100
AcDbEntity
  8
\U+6D88\U+5931\U+9EDE
  6
DASHED2
100
AcDbLine
 10
-25.0
 20
15.0
 30
0.0
 11
75.0
 21
15.0
 31
0.0
  0
LWPOLYLINE
  5
F3
102
{ACAD_REACTORS
330
F9
102
}
100
AcDbEntity
  8
\U+6D88\U+5931\U+9EDE
  6
DASHED2
100
AcDbPolyline
 90
        4
 70
     1
 10
9.0
 20
21.0
 10
9.0
 20
9.0
 10
21.0
 20
9.0
 10
21.0
 20
21.0
  0
MTEXT
  5
F4
100
AcDbEntity
  8
\U+6D88\U+5931\U+9EDE
100
AcDbMText
 10
27.5
 20
25.0
 30
0.0
 40
4.622974
 41
12.5
 71
     5
 72
     5
  1
\C214;\fArial|b0|i0|;\H4.6229736328125;V.P.
  7
HORIZONTALCHINESET
  0
ENDBLK
  5
F5
100
AcDbEntity
  8
0
100
AcDbBlockEnd
  0
BLOCK
  5
F7
100
AcDbEntity
  8
0
100
AcDbBlockBegin
  2
\U+77E9\U+5F62
 70
     0
 10
0.0
 20
0.0
 30
0.0
  3
\U+77E9\U+5F62
  1

  0
LWPOLYLINE
  5
F8
102
{ACAD_REACTORS
330
F9
102
}
100
AcDbEntity
  8
0
  6
CONTINUOUS
 62
     7
100
AcDbPolyline
 90
        4
 70
     1
 10
30.0
 20
35.0
 10
70.0
 20
35.0
 10
70.0
 20
65.0
 10
30.0
 20
65.0
  0
HATCH
  5
F9
100
AcDbEntity
  8
0
 62
   254
100
AcDbHatch
 10
0.0
 20
0.0
 30
0.0
210
0.0
220
0.0
230
1.0
  2
SOLID
 70
     1
 71
     1
 91
        1
 92
        3
 72
     0
 73
     1
 93
        4
 10
30.0
 20
34.999999999999993
 10
70.0
 20
34.999999999999993
 10
70.0
 20
65.0
 10
30.0
 20
65.0
 97
        2
330
F3
330
F8
 75
     0
 76
     1
 98
        0
  0
ENDBLK
  5
FA
100
AcDbEntity
  8
0
100
AcDbBlockEnd
  0
BLOCK
  5
FC
100
AcDbEntity
  8
0
100
AcDbBlockBegin
  2
\U+5713\U+5F62
 70
     0
 10
0.0
 20
0.0
 30
0.0
  3
\U+5713\U+5F62
  1

  0
LWPOLYLINE
  5
FD
102
{ACAD_REACTORS
330
FE
102
}
100
AcDbEntity
  8
0
  6
CONTINUOUS
 62
     7
100
AcDbPolyline
 90
        2
 70
     1
 10
30.0
 20
50.0
 42
-1.0
 10
70.0
 20
50.0
 42
-1.0
  0
HATCH
  5
FE
100
AcDbEntity
  8
0
 62
   254
100
AcDbHatch
 10
0.0
 20
0.0
 30
0.0
210
0.0
220
0.0
230
1.0
  2
SOLID
 70
     1
 71
     1
 91
        1
 92
        3
 72
     1
 73
     1
 93
        2
 10
30.000000000000004
 20
50.0
 42
-0.9999999999999999
 10
70.0
 20
50.0
 42
-1.0000000000000071
 97
        1
330
FD
 75
     0
 76
     1
 98
        0
  0
ENDBLK
  5
FF
100
AcDbEntity
  8
0
100
AcDbBlockEnd
  0
ENDSEC
  0
SECTION
  2
ENTITIES
  0
LINE
  5
34
102
{ACAD_REACTORS
330
31
102
}
100
AcDbEntity
  8
\U+6D88\U+5931\U+9EDE
  6
DASHED2
100
AcDbLine
 10
200.0
 20
-25.0
 30
0.0
 11
200.0
 21
322.0
 31
0.0
  0
LINE
  5
35
102
{ACAD_REACTORS
330
31
102
}
100
AcDbEntity
  8
\U+6D88\U+5931\U+9EDE
  6
DASHED2
100
AcDbLine
 10
-25.0
 20
40.0
 30
0.0
 11
235.0
 21
40.0
 31
0.0
  0
LWPOLYLINE
  5
36
102
{ACAD_REACTORS
330
31
102
}
100
AcDbEntity
  8
\U+6D88\U+5931\U+9EDE
  6
DASHED2
100
AcDbPolyline
 90
        4
 70
     1
 10
194.0
 20
46.0
 10
194.0
 20
34.0
 10
206.0
 20
34.0
 10
206.0
 20
46.0
  0
MTEXT
  5
38
100
AcDbEntity
  8
\U+6D88\U+5931\U+9EDE
100
AcDbMText
 10
212.5
 20
50.0
 30
0.0
 40
4.622974
 41
12.5
 71
     5
 72
     5
  1
\C214;\fArial|b0|i0|;\H4.6229736328125;V.P.
  7
HORIZONTALCHINESET
  0
LWPOLYLINE
  5
39
102
{ACAD_REACTORS
330
3A
102
}
100
AcDbEntity
  8
0
  6
CONTINUOUS
 62
     7
100
AcDbPolyline
 90
        4
 70
     1
 10
32.801165
 20
124.616153
 10
177.801165
 20
124.616153
 10
177.801165
 20
178.616153
 10
32.801165
 20
178.616153
  0
HATCH
  5
3A
100
AcDbEntity
  8
0
 62
   254
100
AcDbHatch
 10
0.0
 20
0.0
 30
0.0
210
0.0
220
0.0
230
1.0
  2
SOLID
 70
     1
 71
     1
 91
        1
 92
        3
 72
     0
 73
     1
 93
        4
 10
32.801164541114893
 20
124.61615324282677
 10
177.80116454111487
 20
124.61615324282677
 10
177.80116454111487
 20
178.61615324282675
 10
32.801164541114893
 20
178.61615324282675
 97
        2
330
36
330
39
 75
     0
 76
     1
 98
        0
  0
DIMENSION
  5
4B
100
AcDbEntity
  8
0
100
AcDbDimension
  2
*D0
 10
37.201165
 20
183.816153
 30
0.0
 11
35.201165
 21
188.429481
 31
0.0
 70
    32
  3
STANDARD
100
AcDbAlignedDimension
 13
32.801165
 23
176.816153
 33
0.0
 14
37.201165
 24
177.316153
 34
0.0
100
AcDbRotatedDimension
1001
ACAD
1000
DSTYLE
1002
{
1070
   140
1040
2.054655
1070
    77
1070
     1
1070
    73
1070
     0
1070
   271
1070
     2
1070
   179
1070
     2
1070
   270
1070
     2
1070
   277
1070
     2
1070
   276
1070
     0
1002
}
  0
DIMENSION
  5
5A
100
AcDbEntity
  8
0
100
AcDbDimension
  2
*D1
 10
27.001165
 20
178.616153
 30
0.0
 11
23.687837
 21
167.096688
 31
0.0
 70
    32
  3
STANDARD
100
AcDbAlignedDimension
 13
34.001165
 23
174.016153
 33
0.0
 14
34.001165
 24
178.616153
 34
0.0
 50
90.0
100
AcDbRotatedDimension
1001
ACAD
1000
DSTYLE
1002
{
1070
   140
1040
2.054655
1070
    77
1070
     1
1070
    73
1070
     0
1070
   271
1070
     2
1070
   179
1070
     2
1070
   270
1070
     2
1070
   277
1070
     2
1070
   276
1070
     0
1002
}
  0
LWPOLYLINE
  5
5B
102
{ACAD_REACTORS
330
5C
102
}
100
AcDbEntity
  8
0
  6
CONTINUOUS
 62
     7
100
AcDbPolyline
 90
        2
 70
     1
 10
35.201165
 20
174.116153
 42
-1.0
 10
39.201165
 20
174.116153
 42
-1.0
  0
HATCH
  5
5C
100
AcDbEntity
  8
0
 62
    49
100
AcDbHatch
 10
0.0
 20
0.0
 30
0.0
210
0.0
220
0.0
230
1.0
  2
SOLID
 70
     1
 71
     1
 91
        1
 92
        3
 72
     1
 73
     1
 93
        2
 10
35.201164541114927
 20
174.11615324282687
 42
-0.9999999999999999
 10
39.201164541114913
 20
174.11615324282687
 42
-1.0000000000000071
 97
        1
330
5B
 75
     0
 76
     1
 98
        0
  0
DIMENSION
  5
6B
100
AcDbEntity
  8
0
100
AcDbDimension
  2
*D2
 10
27.201165
 20
129.216153
 30
0.0
 11
23.887837
 21
117.696688
 31
0.0
 70
    32
  3
STANDARD
100
AcDbAlignedDimension
 13
34.201165
 23
124.616153
 33
0.0
 14
34.201165
 24
129.216153
 34
0.0
 50
90.0
100
AcDbRotatedDimension
1001
ACAD
1000
DSTYLE
1002
{
1070
   140
1040
2.054655
1070
    77
1070
     1
1070
    73
1070
     0
1070
   271
1070
     2
1070
   179
1070
     2
1070
   270
1070
     2
1070
   277
1070
     2
1070
   276
1070
     0
1002
}
  0
DIMENSION
  5
7A
100
AcDbEntity
  8
0
100
AcDbDimension
  2
*D3
 10
37.201165
 20
121.716153
 30
0.0
 11
35.801165
 21
117.429481
 31
0.0
 70
    32
  3
STANDARD
100
AcDbAlignedDimension
 13
32.801165
 23
117.316153
 33
0.0
 14
37.201165
 24
117.316153
 34
0.0
100
AcDbRotatedDimension
1001
ACAD
1000
DSTYLE
1002
{
1070
   140
1040
2.054655
1070
    77
1070
     1
1070
    73
1070
     0
1070
   271
1070
     2
1070
   179
1070
     2
1070
   270
1070
     2
1070
   277
1070
     2
1070
   276
1070
     0
1002
}
  0
DIMENSION
  5
85
100
AcDbEntity
  8
0
100
AcDbDimension
  2
*D4
 10
37.201165
 20
174.116153
 30
0.0
 11
48.801165
 21
183.116153
 31
0.0
 70
   164
  3
STANDARD
100
AcDbRadialDimension
 15
38.383892
 25
175.728963
 35
0.0
 40
0.0
1001
ACAD
1000
DSTYLE
1002
{
1070
   140
1040
2.054655
1070
   279
1070
     1
1070
   288
1070
     1
1070
   271
1070
     2
1070
   179
1070
     2
1070
   270
1070
     2
1070
   277
1070
     2
1070
   276
1070
     0
1002
}
  0
LWPOLYLINE
  5
86
102
{ACAD_REACTORS
330
87
102
}
100
AcDbEntity
  8
0
  6
CONTINUOUS
 62
     7
100
AcDbPolyline
 90
        2
 70
     1
 10
35.201165
 20
129.316153
 42
-1.0
 10
39.201165
 20
129.316153
 42
-1.0
  0
HATCH
  5
87
100
AcDbEntity
  8
0
 62
    49
100
AcDbHatch
 10
0.0
 20
0.0
 30
0.0
210
0.0
220
0.0
230
1.0
  2
SOLID
 70
     1
 71
     1
 91
        1
 92
        3
 72
     1
 73
     1
 93
        2
 10
35.201164541114949
 20
129.31615324282686
 42
-0.9999999999999999
 10
39.201164541114935
 20
129.31615324282686
 42
-1.0000000000000071
 97
        1
330
86
 75
     0
 76
     1
 98
        0
  0
DIMENSION
  5
92
100
AcDbEntity
  8
0
100
AcDbDimension
  2
*D5
 10
37.201165
 20
129.316153
 30
0.0
 11
22.801165
 21
136.216153
 31
0.0
 70
   164
  3
STANDARD
100
AcDbRadialDimension
 15
35.5889
 25
130.499624
 35
0.0
 40
0.0
1001
ACAD
1000
DSTYLE
1002
{
1070
   140
1040
2.054655
1070
   279
1070
     1
1070
   288
1070
     1
1070
   271
1070
     2
1070
   179
1070
     2
1070
   270
1070
     2
1070
   277
1070
     2
1070
   276
1070
     0
1002
}
  0
DIMENSION
  5
A1
100
AcDbEntity
  8
0
100
AcDbDimension
  2
*D6
 10
177.801165
 20
183.926153
 30
0.0
 11
166.481699
 21
187.239481
 31
0.0
 70
    32
  3
STANDARD
100
AcDbAlignedDimension
 13
173.401165
 23
177.516153
 33
0.0
 14
177.801165
 24
177.516153
 34
0.0
100
AcDbRotatedDimension
1001
ACAD
1000
DSTYLE
1002
{
1070
   140
1040
2.054655
1070
    77
1070
     1
1070
    73
1070
     0
1070
   271
1070
     2
1070
   179
1070
     2
1070
   270
1070
     2
1070
   277
1070
     2
1070
   276
1070
     0
1002
}
  0
DIMENSION
  5
B0
100
AcDbEntity
  8
0
100
AcDbDimension
  2
*D7
 10
180.601165
 20
178.516153
 30
0.0
 11
177.287837
 21
166.996688
 31
0.0
 70
    32
  3
STANDARD
100
AcDbAlignedDimension
 13
185.601165
 23
173.916153
 33
0.0
 14
185.601165
 24
178.516153
 34
0.0
 50
90.0
100
AcDbRotatedDimension
1001
ACAD
1000
DSTYLE
1002
{
1070
   140
1040
2.054655
1070
    77
1070
     1
1070
    73
1070
     0
1070
   271
1070
     2
1070
   179
1070
     2
1070
   270
1070
     2
1070
   277
1070
     2
1070
   276
1070
     0
1002
}
  0
DIMENSION
  5
BF
100
AcDbEntity
  8
0
100
AcDbDimension
  2
*D8
 10
177.801165
 20
121.566153
 30
0.0
 11
175.051165
 21
112.379481
 31
0.0
 70
    32
  3
STANDARD
100
AcDbAlignedDimension
 13
173.401165
 23
114.066153
 33
0.0
 14
177.801165
 24
114.616153
 34
0.0
100
AcDbRotatedDimension
1001
ACAD
1000
DSTYLE
1002
{
1070
   140
1040
2.054655
1070
    77
1070
     1
1070
    73
1070
     0
1070
   271
1070
     2
1070
   179
1070
     2
1070
   270
1070
     2
1070
   277
1070
     2
1070
   276
1070
     0
1002
}
  0
DIMENSION
  5
CE
100
AcDbEntity
  8
0
100
AcDbDimension
  2
*D9
 10
179.801165
 20
129.316153
 30
0.0
 11
189.487837
 21
126.441153
 31
0.0
 70
    32
  3
STANDARD
100
AcDbAlignedDimension
 13
186.801165
 23
124.716153
 33
0.0
 14
186.801165
 24
129.316153
 34
0.0
 50
90.0
100
AcDbRotatedDimension
1001
ACAD
1000
DSTYLE
1002
{
1070
   140
1040
2.054655
1070
    77
1070
     1
1070
    73
1070
     0
1070
   271
1070
     2
1070
   179
1070
     2
1070
   270
1070
     2
1070
   277
1070
     2
1070
   276
1070
     0
1002
}
  0
LWPOLYLINE
  5
CF
102
{ACAD_REACTORS
330
D0
102
}
100
AcDbEntity
  8
0
  6
CONTINUOUS
 62
     7
100
AcDbPolyline
 90
        2
 70
     1
 10
171.401165
 20
129.116153
 42
-1.0
 10
175.401165
 20
129.116153
 42
-1.0
  0
HATCH
  5
D0
100
AcDbEntity
  8
0
 62
    49
100
AcDbHatch
 10
0.0
 20
0.0
 30
0.0
210
0.0
220
0.0
230
1.0
  2
SOLID
 70
     1
 71
     1
 91
        1
 92
        3
 72
     1
 73
     1
 93
        2
 10
171.40116454111495
 20
129.1161532428269
 42
-0.9999999999999999
 10
175.40116454111495
 20
129.1161532428269
 42
-1.0000000000000071
 97
        1
330
CF
 75
     0
 76
     1
 98
        0
  0
DIMENSION
  5
DB
100
AcDbEntity
  8
0
100
AcDbDimension
  2
*D10
 10
173.401165
 20
129.116153
 30
0.0
 11
158.901165
 21
118.616153
 31
0.0
 70
   164
  3
STANDARD
100
AcDbRadialDimension
 15
172.059338
 25
127.633082
 35
0.0
 40
0.0
1001
ACAD
1000
DSTYLE
1002
{
1070
   140
1040
2.054655
1070
   279
1070
     1
1070
   288
1070
     1
1070
   271
1070
     2
1070
   179
1070
     2
1070
   270
1070
     2
1070
   277
1070
     2
1070
   276
1070
     0
1002
}
  0
LWPOLYLINE
  5
DC
102
{ACAD_REACTORS
330
DD
102
}
100
AcDbEntity
  8
0
  6
CONTINUOUS
 62
     7
100
AcDbPolyline
 90
        2
 70
     1
 10
171.401165
 20
173.916153
 42
-1.0
 10
175.401165
 20
173.916153
 42
-1.0
  0
HATCH
  5
DD
100
AcDbEntity
  8
0
 62
    49
100
AcDbHatch
 10
0.0
 20
0.0
 30
0.0
210
0.0
220
0.0
230
1.0
  2
SOLID
 70
     1
 71
     1
 91
        1
 92
        3
 72
     1
 73
     1
 93
        2
 10
171.40116454111492
 20
173.91615324282688
 42
-0.9999999999999999
 10
175.40116454111492
 20
173.91615324282688
 42
-1.0000000000000071
 97
        1
330
DC
 75
     0
 76
     1
 98
        0
  0
DIMENSION
  5
E8
100
AcDbEntity
  8
0
100
AcDbDimension
  2
*D11
 10
173.401165
 20
173.916153
 30
0.0
 11
154.301165
 21
183.616153
 31
0.0
 70
   164
  3
STANDARD
100
AcDbRadialDimension
 15
171.753422
 25
175.049707
 35
0.0
 40
0.0
1001
ACAD
1000
DSTYLE
1002
{
1070
   140
1040
2.054655
1070
   279
1070
     1
1070
   288
1070
     1
1070
   271
1070
     2
1070
   179
1070
     2
1070
   270
1070
     2
1070
   277
1070
     2
1070
   276
1070
     0
1002
}
  0
LWPOLYLINE
  5
E9
102
{ACAD_REACTORS
330
EA
102
}
100
AcDbEntity
  8
0
  6
CONTINUOUS
 62
     7
100
AcDbPolyline
 90
        4
 70
     1
 10
107.801165
 20
160.616153
 10
169.801165
 20
160.616153
 10
169.801165
 20
167.616153
 10
107.801165
 20
167.616153
  0
HATCH
  5
EA
100
AcDbEntity
  8
0
 62
    49
100
AcDbHatch
 10
0.0
 20
0.0
 30
0.0
210
0.0
220
0.0
230
1.0
  2
SOLID
 70
     1
 71
     1
 91
        1
 92
        3
 72
     0
 73
     1
 93
        4
 10
107.80116454111493
 20
160.61615324282681
 10
169.8011645411149
 20
160.61615324282681
 10
169.8011645411149
 20
167.61615324282684
 10
107.80116454111493
 20
167.61615324282684
 97
        1
330
E9
 75
     0
 76
     1
 98
        0
  0
LWPOLYLINE
  5
EB
102
{ACAD_REACTORS
330
EC
102
}
100
AcDbEntity
  8
0
  6
CONTINUOUS
 62
     7
100
AcDbPolyline
 90
        4
 70
     1
 10
41.001165
 20
160.616153
 10
103.001165
 20
160.616153
 10
103.001165
 20
167.616153
 10
41.001165
 20
167.616153
  0
HATCH
  5
EC
100
AcDbEntity
  8
0
 62
    49
100
AcDbHatch
 10
0.0
 20
0.0
 30
0.0
210
0.0
220
0.0
230
1.0
  2
SOLID
 70
     1
 71
     1
 91
        1
 92
        3
 72
     0
 73
     1
 93
        4
 10
41.001164541114946
 20
160.61615324282681
 10
103.00116454111493
 20
160.61615324282681
 10
103.00116454111493
 20
167.61615324282684
 10
41.001164541114946
 20
167.61615324282684
 97
        1
330
EB
 75
     0
 76
     1
 98
        0
  0
LWPOLYLINE
  5
ED
102
{ACAD_REACTORS
330
EE
102
}
100
AcDbEntity
  8
0
  6
CONTINUOUS
 62
     7
100
AcDbPolyline
 90
        4
 70
     1
 10
74.401165
 20
150.616153
 10
136.401165
 20
150.616153
 10
136.401165
 20
157.616153
 10
74.401165
 20
157.616153
  0
HATCH
  5
EE
100
AcDbEntity
  8
0
 62
    49
100
AcDbHatch
 10
0.0
 20
0.0
 30
0.0
210
0.0
220
0.0
230
1.0
  2
SOLID
 70
     1
 71
     1
 91
        1
 92
        3
 72
     0
 73
     1
 93
        4
 10
74.401164541114952
 20
150.61615324282684
 10
136.40116454111492
 20
150.61615324282684
 10
136.40116454111492
 20
157.61615324282684
 10
74.401164541114952
 20
157.61615324282684
 97
        1
330
ED
 75
     0
 76
     1
 98
        0
  0
ENDSEC
  0
SECTION
  2
OBJECTS
  0
DICTIONARY
  5
C
100
AcDbDictionary
  3
ACAD_GROUP
350
D
  3
ACAD_MLINESTYLE
350
1B
  0
DICTIONARY
  5
D
102
{ACAD_REACTORS
330
C
102
}
100
AcDbDictionary
  3
VISIOGROUP_0
350
31
  0
DICTIONARY
  5
1B
102
{ACAD_REACTORS
330
C
102
}
100
AcDbDictionary
  3
STANDARD
350
1C
  0
MLINESTYLE
  5
1C
102
{ACAD_REACTORS
330
1B
102
}
100
AcDbMlineStyle
  2
STANDARD
 70
     0
  3

 62
   256
 51
90.0
 52
90.0
 71
     2
 49
0.5
 62
   256
  6
BYLAYER
 49
-0.5
 62
   256
  6
BYLAYER
  0
GROUP
  5
31
102
{ACAD_REACTORS
330
D
102
}
100
AcDbGroup
300
Group created by Visio.
 70
     0
 71
     1
340
34
340
35
340
36
  0
ENDSEC
  0
EOF
