<?xml version="1.0" standalone="no"?>
<!DOCTYPE svg PUBLIC "-//W3C//DTD SVG 1.1//EN" "http://www.w3.org/Graphics/SVG/1.1/DTD/svg11.dtd" >
<svg xmlns="http://www.w3.org/2000/svg">
<metadata>
Created by FontForge 20120731 at Fri Nov 27 19:22:27 2015
 By Ads
</metadata>
<defs>
<font id="iconfont" horiz-adv-x="1024" >
  <font-face 
    font-family="iconfont"
    font-weight="500"
    font-stretch="normal"
    units-per-em="1024"
    panose-1="2 0 6 3 0 0 0 0 0 0"
    ascent="896"
    descent="-128"
    x-height="792"
    bbox="0 -212 1388 812"
    underline-thickness="50"
    underline-position="-100"
    unicode-range="U+0078-E60F"
  />
<missing-glyph horiz-adv-x="374" 
d="M34 0v682h272v-682h-272zM68 34h204v614h-204v-614z" />
    <glyph glyph-name=".notdef" horiz-adv-x="374" 
d="M34 0v682h272v-682h-272zM68 34h204v614h-204v-614z" />
    <glyph glyph-name=".null" horiz-adv-x="0" 
 />
    <glyph glyph-name="nonmarkingreturn" horiz-adv-x="341" 
 />
    <glyph glyph-name="x" unicode="x" horiz-adv-x="1001" 
d="M281 543q-27 -1 -53 -1h-83q-18 0 -36.5 -6t-32.5 -18.5t-23 -32t-9 -45.5v-76h912v41q0 16 -0.5 30t-0.5 18q0 13 -5 29t-17 29.5t-31.5 22.5t-49.5 9h-133v-97h-438v97zM955 310v-52q0 -23 0.5 -52t0.5 -58t-10.5 -47.5t-26 -30t-33 -16t-31.5 -4.5q-14 -1 -29.5 -0.5
t-29.5 0.5h-32l-45 128h-439l-44 -128h-29h-34q-20 0 -45 1q-25 0 -41 9.5t-25.5 23t-13.5 29.5t-4 30v167h911zM163 247q-12 0 -21 -8.5t-9 -21.5t9 -21.5t21 -8.5q13 0 22 8.5t9 21.5t-9 21.5t-22 8.5zM316 123q-8 -26 -14 -48q-5 -19 -10.5 -37t-7.5 -25t-3 -15t1 -14.5
t9.5 -10.5t21.5 -4h37h67h81h80h64h36q23 0 34 12t2 38q-5 13 -9.5 30.5t-9.5 34.5q-5 19 -11 39h-368zM336 498v228q0 11 2.5 23t10 21.5t20.5 15.5t34 6h188q31 0 51.5 -14.5t20.5 -52.5v-227h-327z" />
    <glyph glyph-name="uniE600" unicode="&#xe600;" 
d="M750 574l36 -42q17 -32 3 -65q-9 -22 -31 -40q-10 -8 -23 -14t-29 -9.5t-33 -3.5q-53 0 -86 28q-12 15 -18 31.5t-6 34.5q0 45 38 82l67 44l-156 128l-156 -128l67 -44q9 -9 16.5 -18.5t12.5 -20t7.5 -21.5t2.5 -22q0 -34 -24 -65q-32 -29 -87 -29q-52 0 -85 27
q-7 6 -13 12t-10.5 13t-7.5 15q-7 17 -6 33.5t9 31.5l36 42l-185 55l87 -341h672l87 341zM178 265h668v-49h-668v49zM473 150l-112 -296h-75l-113 296h73l70 -208q4 -14 9 -29q0 1 3 7q2 6 6 22l66 208h73zM562 -146h-69v296h69v-296zM722 -43h-50v-103h-67v296h124
q107 -3 111 -93q1 -101 -118 -100zM716 98h-44v-90h44q53 2 54 46q-1 43 -54 44z" />
    <glyph glyph-name="uniE601" unicode="&#xe601;" 
d="M508 -204l-21 19q-18 16 -49 45.5t-97 101t-118 139t-93.5 150.5t-41.5 145q0 111 56.5 206t153 150t210.5 55q86 0 163.5 -32.5t134 -87.5t89.5 -131.5t33 -159.5q0 -62 -41 -145t-93 -150.5t-118 -139t-97 -101t-49 -45.5zM508 745q-58 0 -112 -17.5t-98 -50t-77 -75.5
t-51 -96.5t-18 -109.5q0 -54 38 -128t98 -148t114.5 -132.5t105.5 -107.5q33 31 67.5 66.5t76.5 82t78.5 94.5t67.5 96t49 94t18 83q0 94 -48 174.5t-130 127.5t-179 47zM591 456q0 -22 -10.5 -40.5t-29.5 -29.5t-42 -11q-34 0 -58 23.5t-24 57t24 57t58 23.5t58 -23.5
t24 -56.5z" />
    <glyph glyph-name="uniE602" unicode="&#xe602;" 
d="M686 722q22 0 34 -11l4 -3q1 -2 3 -7.5t2 -12.5q0 -6 -1.5 -12t-4 -13.5t-6.5 -14.5t-10.5 -15t-13.5 -15q-25 -23 -60.5 -38t-64.5 -15h-6q-3 0 -5 0.5t-3 1t-2 0.5h-1q-7 13 7.5 52t45.5 67q38 36 82 36zM686 796q-73 0 -132 -56q-34 -31 -55.5 -75.5t-22.5 -84.5
t24 -66q24 -23 68 -23q43 0 91.5 20.5t83.5 52.5q50 47 58 106t-31 95q-33 31 -84 31zM309 722q21 0 43 -9.5t40 -26.5q30 -28 45 -67t9 -51q-6 -3 -18 -3q-29 0 -65 15t-60 38q-36 34 -36 70q0 4 1 8l2 6q0 2 1.5 4.5t2.5 3t2 1.5q5 5 11.5 7.5t11.5 3t10 0.5zM309 796
q-16 0 -31 -3.5t-28.5 -10t-23.5 -17.5q-39 -36 -31.5 -95t58.5 -106q8 -8 18 -15.5t20.5 -14t21.5 -12.5t22.5 -10.5t23.5 -8.5t23.5 -6.5t23 -4t22.5 -1.5q10 0 19.5 1.5t18 4t16.5 7t14 10.5q19 17 23 46.5t-5 61.5t-28 63.5t-44 54.5q-60 56 -133 56zM932 202v253
q0 30 -21.5 51t-51.5 21h-325v-325h398zM534 130v-326h325q30 0 51.5 21.5t21.5 51.5v253h-398zM462 202v325h-326q-30 0 -51 -21t-21 -51v-253h398zM64 130v-253q0 -20 9.5 -36.5t26.5 -26.5t36 -10h326v326h-398z" />
    <glyph glyph-name="uniE603" unicode="&#xe603;" horiz-adv-x="1376" 
d="M1367 362q0 -35 -24.5 -59.5t-59.5 -24.5q-33 0 -57 22l-4 4q-83 147 -226.5 240.5t-310.5 93.5q-158 0 -297 -89.5t-225 -227.5q-4 -10 -11 -19q-1 -1 -3 -4.5t-3 -4.5l2 3q-12 -12 -29 -20t-34 -8q-35 0 -60 25t-25 60q0 49 18 67l1 1l-1 -1q202 392 667 392
q162 0 285 -47t216 -138t180 -240q3 -7 3.5 -13t-1.5 -9zM679 454q128 0 237 -65t177 -173q3 -4 8.5 -11t8.5 -11t7 -10t6 -11t3.5 -11.5t1.5 -13.5q0 -17 -7 -32.5t-18 -27t-27 -18t-33 -6.5q-24 0 -45 13l-7 5l-5 6l-2 2q-1 0 -2.5 2t-2.5 4q-3 3 -19 31
q-44 75 -118.5 119.5t-162.5 44.5q-89 0 -164 -44t-118 -118q-3 -4 -5 -7.5t-3.5 -7t-3.5 -7.5l-4 -8q-2 -4 -4.5 -9.5t-4.5 -10.5q-2 -1 -2 -1.5t-2 -2.5l-6 -5l-6 -4l-6 -4l-8 -2q-3 -2 -6.5 -3t-7 -1.5t-7.5 -1t-8 -0.5q-35 0 -60 25t-25 60q0 36 26 64q73 116 183 183.5
t242 67.5zM674 117q68 0 115.5 -47.5t47.5 -115.5q0 -44 -22 -81.5t-59.5 -59.5t-81.5 -22q-67 0 -114.5 48t-47.5 115q0 14 2 27t6 25t10 23t13 21t16 19t19 16.5t21.5 13.5t23.5 10t25 6t26 2z" />
    <glyph glyph-name="uniE604" unicode="&#xe604;" 
d="M245 330q23 0 41.5 11t29.5 30t11 41v164q0 16 -6.5 31t-17.5 26t-26 17.5t-32 6.5q-33 0 -57 -24t-24 -57v-164q0 -34 24 -58t57 -24zM511 3q-160 0 -296 65.5t-215 176.5v-164q79 -110 215 -176t296.5 -66t296.5 66t214 176v164q-101 -142 -285 -205q-108 -37 -226 -37
zM777 330q34 0 58 24t24 58v164q0 33 -24 57t-58 24t-58 -24t-24 -57v-164q0 -17 6.5 -32t17.5 -26t26 -17.5t32 -6.5zM777 330z" />
    <glyph glyph-name="uniE605" unicode="&#xe605;" 
d="M974 203v168q0 9 -4.5 16.5t-11.5 11.5l-128 74v149q0 19 -17 28l-145 84q-17 9 -33 0l-127 -74l-130 74q-16 10 -33 0l-145 -84q-7 -4 -11.5 -11.5t-4.5 -16.5l1 -147l-130 -75q-7 -5 -11.5 -12.5t-4.5 -16.5v-167q0 -9 4.5 -16.5t12.5 -12.5l127 -73l1 -149
q0 -19 16 -29l146 -83q7 -5 15.5 -5t16.5 5l128 74l129 -75q2 -1 3 -2h4l2 -2h4h3q3 0 6 0.5t5.5 1.5t5.5 2l145 85q7 4 11.5 11.5t4.5 16.5v147l129 75q16 10 16 28zM652 668l112 -65l1 -129l-114 -66l-111 64v131zM507 158q-23 -1 -60.5 21t-51.5 44q-13 21 -12 63t12 66
q10 21 48 42.5t63 22.5q7 0 16 -2.5t18 -6t19 -8.5t19 -11t17 -12t14 -12.5t9 -12.5q12 -21 11.5 -64t-10.5 -65q-10 -21 -48 -42t-64 -23zM362 669l112 -65v-131l-111 -64l-113 65l-1 129zM104 353l112 65l113 -66l1 -128l-114 -66l-112 65v130zM362 -93l-113 65v129
l113 65l111 -63v-132zM651 -94l-112 65v131l111 64l114 -65v-130zM797 157l-113 66v128l113 66l112 -65v-130z" />
    <glyph glyph-name="uniE606" unicode="&#xe606;" horiz-adv-x="1388" 
d="M1270 802h-1157q-47 0 -80 -40.5t-33 -97.5v-722q0 -58 33 -98.5t80 -40.5h1162q46 0 79.5 40.5t33.5 98.5v722q-4 57 -38 97.5t-80 40.5zM737 -43h-640v26q0 91 40.5 168.5t113.5 128.5q-62 61 -62 153q0 96 67.5 163.5t163.5 67.5t163 -67.5t67 -163.5
q0 -28 -6.5 -54.5t-19 -51t-30.5 -47.5q66 -47 104.5 -125t38.5 -172v-26zM154 8h532q-4 83 -42.5 146t-100.5 95l-36 20l31 26q31 28 48.5 62.5t17.5 75.5q0 24 -6.5 47t-18 42.5t-28.5 36.5t-36.5 28.5t-42.5 18t-47 6.5q-73 0 -126 -53t-53 -126q0 -80 66 -138l31 -26
l-36 -20q-65 -35 -105.5 -97.5t-47.5 -143.5zM1229 433h-425q-8 0 -15 4.5t-11.5 11.5t-4.5 15q0 5 2.5 11t7 10t10 7t11.5 3h425q11 0 21 -10t10 -21q0 -8 -4.5 -15t-12 -11.5t-14.5 -4.5zM1229 264h-425q-12 0 -21.5 9.5t-9.5 21.5q0 3 1 6.5t2.5 6.5t3.5 6l6 4q2 3 5 4.5
t6.5 2.5t6.5 1h425q11 0 21 -10t10 -21q0 -20 -21 -29q-6 -2 -10 -2zM1229 105h-425q-8 0 -15 4.5t-11.5 12t-4.5 14.5q0 12 9.5 21.5t21.5 9.5h425q11 0 21 -9.5t10 -21t-10 -21.5t-21 -10z" />
    <glyph glyph-name="uniE607" unicode="&#xe607;" 
d="M532 85v113q23 -5 38.5 -21t15.5 -36t-15.5 -35.5t-38.5 -20.5zM439 299q0 19 13 34t35 21v-110q-22 6 -35 21.5t-13 33.5zM532 239v117q22 -5 37 -20q6 -6 15.5 -6.5t16.5 5t7.5 14t-5.5 14.5q-28 28 -71 34v24q0 4 -2 8t-5 6.5t-7 4t-9 1.5q-3 0 -6.5 -1t-6.5 -2.5
t-5 -4t-3 -5.5t-1 -7v-25q-41 -8 -67 -35t-26 -62q0 -23 12 -43.5t33 -34t48 -18.5v-117q-22 7 -35 22t-13 33q0 6 -3 10.5t-8.5 7t-11.5 2.5q-9 0 -15.5 -5.5t-6.5 -14.5q0 -23 12 -43.5t33 -34t48 -18.5v-26q0 -8 6.5 -14t15.5 -6q6 0 11.5 3t8.5 7.5t3 9.5v25
q21 3 39 11.5t31.5 21.5t21 29.5t7.5 34.5q0 37 -28.5 64.5t-70.5 33.5zM512 -109q-94 0 -174 37.5t-126.5 102t-46.5 140.5q0 167 275 367h146q274 -197 274 -367q0 -76 -46.5 -140.5t-127 -102t-174.5 -37.5zM695 709l-120 -131h-125l-120 131h365zM620 564l140 152
q9 10 3 21q-3 6 -8.5 9t-12.5 3h-460q-14 0 -20 -12q-1 -1 -1.5 -3t-0.5 -4v-4q0 -1 0.5 -3t1.5 -3.5t3 -3.5l140 -152q-46 -33 -84 -66t-89.5 -87t-81.5 -116.5t-30 -123.5q0 -86 52.5 -160t143 -117t197 -43t197 43t143 117t52.5 160q0 187 -285 393zM620 564z" />
    <glyph glyph-name="uniE608" unicode="&#xe608;" 
d="M335 553q22 29 49 50q23 19 50.5 34t57.5 13q43 -3 71.5 -20.5t45.5 -43t23 -58t4 -66.5t-13.5 -64.5t-27 -58t-34 -50t-37.5 -40.5q-27 -29 -58 -55t-58.5 -46t-49.5 -32t-32 -12q-13 0 -33 12.5t-44.5 32.5t-52 46t-55.5 53q-17 17 -38.5 39t-40.5 48t-32.5 57.5
t-14.5 67.5q-2 35 7.5 66t27.5 55.5t44 41.5t58.5 24t65 -6.5t58.5 -33.5q31 -22 59 -54zM611 650q14 0 26 -1q11 -1 23.5 -3t21.5 -6t19.5 -10.5t19.5 -13.5l20 -16q7 6 14 11q13 11 36 24q12 7 28.5 10.5t33 2.5t33 -6.5t27.5 -17.5q32 -34 38 -66.5t-1.5 -60.5t-23 -49.5
t-27.5 -33.5q-23 -24 -44 -41.5t-52 -39.5q-17 -11 -34.5 -19.5t-27.5 -8.5q-9 -1 -19.5 8t-26.5 20q-7 5 -13 12l-12 11l-13 13q12 20 19 46q6 21 9 50.5t-3 62.5q-7 32 -19 55.5t-23 38.5q-13 17 -29 28z" />
    <glyph glyph-name="uniE609" unicode="&#xe609;" 
d="M839 606q-118 -9 -212 -16q-40 -3 -79.5 -6t-72 -5t-54.5 -4t-26 -2q-5 -1 -11.5 -1.5t-11.5 -2.5l-13 -5l-45 21q5 7 13 13q5 5 12.5 10t15.5 6q6 1 33 3t66 5q0 13 2.5 36t12 45.5t28 40t50.5 20.5q37 3 60 -11t35.5 -35t18 -43t6.5 -35q44 3 73 5t32 3q11 1 25 -4
t22 -13q2 -2 5.5 -6t6.5 -8q5 -4 8 -11zM555 728q-19 -2 -31 -13.5t-18 -28t-8 -33.5t-2 -27q31 2 64.5 5t65.5 5q-1 9 -5 25.5t-12 32t-21.5 25.5t-32.5 9zM955 -24q6 -29 -1 -48t-38 -26q-10 -3 -44 -10t-82 -17.5t-102 -22t-103.5 -22t-89 -18.5t-56.5 -11
q-38 -9 -55.5 4.5t-17.5 40.5v628q0 26 10.5 42t31.5 17q8 0 19.5 1t23.5 2q13 1 27 2l9 -147q-1 -1 -4 -1q-2 0 -6 -0.5t-9 -0.5q-22 -2 -21 -25q2 -9 3 -25.5t1.5 -34.5t1.5 -35t2 -27q1 -20 6 -22.5t22 -2.5h15q6 0 11.5 0.5t12.5 1t19 1.5q21 2 27 9.5t5 21.5
q0 7 -1.5 25t-3 37.5t-2.5 37t-2 24.5q-2 12 -5 17.5t-11 4.5q-4 0 -8 -0.5t-9 -0.5h-8l-9 145q70 6 128 10l50 4q25 2 46.5 3.5t38 3t24.5 2.5q29 3 46.5 -9.5t21.5 -37.5q1 -8 7.5 -49t15.5 -98l20 -124l19 -123q9 -57 15.5 -98t8.5 -49zM311 -113q0 -15 1.5 -25.5
t3.5 -16.5q2 -9 6 -13q-26 14 -50 27q-20 11 -40.5 23t-34.5 20q-27 15 -36.5 36.5t-4.5 45.5q2 6 9 45t18 94t22.5 118.5t22 119t18 95.5t8.5 47q4 23 15 35t25 6q8 -4 13 -9q3 -3 4 -5v-643z" />
    <glyph glyph-name="uniE60A" unicode="&#xe60a;" 
d="M800 480q-13 0 -22.5 -9.5t-9.5 -22.5v-96q0 -106 -75 -181t-181 -75t-181 75t-75 181v96q0 13 -9.5 22.5t-22.5 9.5t-22.5 -9.5t-9.5 -22.5v-96q0 -115 73 -203t183 -110v-135h-64v-64h256v64h-64v135q110 22 183 110t73 203v96q0 13 -9.5 22.5t-22.5 9.5zM512 160
q79 0 135.5 56.5t56.5 135.5v192q0 79 -56.5 135.5t-135.5 56.5t-135.5 -56.5t-56.5 -135.5v-192q0 -79 56.5 -135.5t135.5 -56.5z" />
    <glyph glyph-name="uniE60B" unicode="&#xe60b;" 
d="M511 -143q-89 0 -171 33.5t-145 96.5t-97 144t-34 170t34 170t97 144q13 12 26.5 23.5t27.5 22t29 19.5t30.5 16.5t31.5 14.5t32.5 12t33.5 9t34.5 7t35 4.5t35.5 1.5q45 0 88 -8.5t83 -25t76.5 -41t68.5 -55.5q86 -85 116 -199.5t0 -229t-116 -199.5
q-25 -25 -53.5 -45.5t-59.5 -36.5t-64.5 -26.5t-68 -16t-70.5 -5.5v0v0zM511 687q-26 0 -51.5 -3.5t-49.5 -10t-47.5 -16t-45.5 -22t-42 -28t-39 -33.5q-21 -22 -39.5 -46.5t-32 -51.5t-23 -55.5t-14 -58.5t-4.5 -61q0 -77 29 -147.5t84 -125.5q37 -36 81 -61.5t93 -38.5
t101 -13t101 13t93 38.5t81 61.5q74 74 100.5 173.5t0 199t-100.5 173.5q-55 54 -126 83.5t-149 29.5v0v0zM352 180q3 -4 7 -9.5t18.5 -19.5t31.5 -25t44.5 -20t57.5 -9q22 0 43.5 4.5t38 11.5t32 16t26.5 18t19.5 16.5t12.5 11.5l4 5q2 0 4.5 -0.5t9.5 -2.5t12 -6t9 -12.5
t4 -20.5q-1 -2 -4 -5.5t-13 -13.5t-21.5 -19t-30 -20.5t-39.5 -19.5t-49 -13.5t-58 -5.5t-57 5.5t-46 14t-35 19t-26.5 20.5t-17.5 19t-10 14l-3 5v5q0 3 2 10t5.5 12.5t11 10t17.5 4.5v0zM381 444q-6 0 -12 -1.5t-11.5 -4.5t-10.5 -6.5t-8.5 -8.5t-6.5 -10t-4 -11t-1 -13
q0 -22 16 -38t38.5 -16t38.5 16t16 38.5t-16 38.5t-39 16v0v0zM661 444q-22 0 -38 -16t-16 -38.5t16 -38.5t38.5 -16t38.5 16t16 38.5t-16 38.5t-39 16v0v0zM661 444z" />
    <glyph glyph-name="uniE60C" unicode="&#xe60c;" 
d="M812 299q10 0 19 2.5t17 7.5t14.5 11.5t11 14t7 17t2.5 19.5q0 14 -5.5 27t-15 22.5t-22.5 15.5t-28 6q-19 0 -35.5 -9.5t-26 -26t-9.5 -35.5q0 -30 21 -51t50 -21zM812 405q14 0 24.5 -10t10.5 -24.5t-10.5 -24.5t-24.5 -10t-24 10t-10 24.5t10 24.5t24 10zM665 428
q29 0 50 21t21 50.5t-21 50.5t-50 21q-12 0 -22.5 -3.5t-19.5 -10.5t-15.5 -15.5t-10 -19.5t-3.5 -22q0 -15 5.5 -28t15 -22.5t22.5 -15.5t28 -6zM665 534q4 0 8.5 -1.5t8.5 -3.5t7 -5t5.5 -7t3.5 -8.5t1 -8.5q0 -10 -4.5 -18t-12.5 -12.5t-17 -4.5q-6 0 -11 2t-9.5 5
t-7.5 7.5t-4.5 9.5t-1.5 11q0 9 4.5 17t12.5 12.5t17 4.5zM981 401v96q0 57 -19 100q-6 13 -13.5 24t-16.5 21t-19 18q-51 40 -124 40h-258v47q0 8 -5.5 13t-13 5t-13 -5t-5.5 -13v-47h-273q-73 0 -124 -40q-32 -25 -49 -63q-7 -14 -11 -30t-6 -33.5t-2 -36.5v-96v-27v-152
q0 -49 34.5 -84t83.5 -35h48q16 -1 34 2q40 7 60 30q16 17 25 31q22 30 65 36q9 1 19 1h70h1q43 1 61 -22q5 -6 12.5 -7t13.5 4q4 3 6 7.5t1 9.5t-4 9q-13 16 -36 25t-34.5 10.5t-20.5 0.5h-70h-1q-12 0 -23 -2q-58 -8 -90 -50v-1q-1 0 -1 -0.5t-0.5 -1.5t-1.5 -2t-2 -2.5
t-2.5 -3t-3 -4t-3.5 -4.5t-4 -4.5t-4 -5.5q-6 -6 -15 -10.5t-19 -6t-17.5 -2t-13.5 -0.5h-1h-49q-34 0 -58 24t-24 58v152v27v96q0 92 55 134q41 32 101 32h568q60 0 101 -32q55 -42 55 -134v-96v-27v-152q0 -9 -2 -17t-5 -15t-7.5 -13.5t-10 -12t-12 -10t-14 -8t-15.5 -5
t-16 -1.5h-49h-1q-14 -1 -34 3.5t-31 15.5q-14 17 -22 28v1q-11 14 -24.5 24.5t-30 17t-35.5 8.5q-4 1 -13 1.5t-24 0.5h-9q-8 1 -13.5 -4.5t-6 -13t4.5 -13t13 -6.5h10h8q4 0 9.5 -0.5t9.5 -0.5h5q44 -6 66 -36q2 -2 4 -5.5t8 -11t13 -14.5q20 -23 60 -30q14 -2 28 -2h6h48
q16 0 31.5 4.5t28.5 12t24 18.5t18.5 24t11.5 28.5t4 31.5v152v27zM268 310q8 0 13.5 5.5t5.5 13.5v105h105q8 0 13 5.5t5 13t-5 13t-13 5.5h-105v105q0 8 -5 13.5t-13 5.5t-13 -5.5t-6 -13.5v-105h-105q-7 0 -12.5 -5.5t-5.5 -13t5.5 -13t12.5 -5.5h105v-105
q0 -8 5.5 -13.5t12.5 -5.5z" />
    <glyph glyph-name="uniE60D" unicode="&#xe60d;" 
d="M780 37h-119q5 31 12 62h107q75 0 128.5 53.5t53.5 128.5q0 32 -10.5 62t-30.5 54t-46 40q-5 -7 -9.5 -14.5t-11 -15.5t-13.5 -16q15 -8 26.5 -19.5t20 -25.5t13.5 -30.5t5 -34.5q0 -52 -37 -88.5t-89 -36.5q-8 0 -17 1q-7 0 -17.5 2.5t-22 6t-17.5 5.5t-11 4
q12 34 23 56q25 -11 47 -13h4h5h4q0 -1 1 -1h1q26 0 45 19t19 45q0 24 -14.5 41t-37.5 21q-11 1 -23.5 -2.5t-22.5 -8.5t-18.5 -10.5t-13.5 -9.5l-4 -4q-7 6 -12.5 13t-9.5 13t-6.5 11.5t-4.5 9.5l-1 3q8 5 18.5 11.5t20.5 11.5t19 9t15 6l6 3l10 7q14 9 26 21.5t19 23
t12.5 20.5t7 14t2.5 6q3 11 3 24q0 37 -26 62.5t-62 25.5h-12l-18 -2l-13 17q-16 27 -38 48t-47.5 35.5t-55 22t-60.5 7.5q-84 0 -148.5 -52.5t-81.5 -133.5q20 -1 39 -5.5t38 -12.5q11 54 54 90t99 36q32 0 60 -11.5t49 -32.5t34 -49q38 -3 70.5 -24t50.5 -54l-47 -48
q-8 28 -31.5 46t-54.5 19l-2 -1h-2l-29 -6l-7 29q-3 10 -7.5 19.5t-11 17t-14.5 14t-17 10.5t-19.5 6.5t-21.5 2.5q-26 0 -47.5 -13t-34.5 -35t-13 -47v-2l10 -8q5 -4 9.5 -8t9 -8.5t8.5 -9.5l8 -10q28 14 60 14q60 0 100 -44l-32 -44q-21 18 -49 24h-1q-3 1 -5 1q-3 1 -7 1
q-6 1 -12 1q-45 0 -78 -31q-15 34 -42 59t-61 39t-72 14q-31 0 -60.5 -9.5t-53 -27.5t-41.5 -41.5t-27.5 -53t-9.5 -60.5q0 -80 56.5 -136.5t135.5 -56.5h122q8 -31 10 -62h-132q-105 0 -179.5 74.5t-74.5 180.5q0 92 60 163t149 87q17 108 100 179.5t194 71.5q37 0 72 -8.5
t66.5 -25t58.5 -40.5t48 -54q40 0 74.5 -20t54.5 -54.5t20 -75.5q0 -10 -1 -19q59 -32 93.5 -89.5t34.5 -125.5q0 -107 -79 -180q-71 -63 -165 -64zM791 -133h-169q-10 57 -10 116q0 122 47 236q6 16 17 38q-13 11 -23.5 24.5t-17.5 28.5l-4 -8q-40 -73 -60.5 -154.5
t-20.5 -164.5q0 -29 2.5 -58t7.5 -58h-78q2 9 5 27t5 29t3.5 26t1.5 28q0 49 -6.5 96.5t-20 93t-32.5 89.5l-13 29l-29 -13l-8 -4q-15 -9 -30 -16t-26 -11t-21.5 -6.5t-17 -3t-12.5 -1t-7.5 0t-2.5 0.5h-4q-10 0 -19.5 3t-16.5 8.5t-13 13t-9 17t-3 19.5q0 24 18 42t43 18
q8 0 16 -2.5t15.5 -7t12.5 -10.5l46 41q-17 20 -40.5 30.5t-49.5 10.5q-51 0 -86.5 -36t-35.5 -86q0 -51 35 -86.5t85 -36.5q53 -4 129 32q41 -107 41 -224q0 -13 -1.5 -28.5t-3.5 -25.5t-5.5 -29t-4.5 -27h-184v-61h555v61z" />
    <glyph glyph-name="uniE60E" unicode="&#xe60e;" 
d="M835 138q42 -60 96 -77q-24 -73 -74 -152q-39 -60 -78 -90t-77 -30q-28 0 -84 20q-52 19 -90.5 19t-85.5 -20q-49 -20 -80 -20q-92 0 -180 158q-89 155 -89 306q0 139 67 227q69 89 171 89q6 0 11.5 -0.5t12 -1t13 -1.5t13.5 -3q27 -5 57 -21q31 -17 51.5 -24t31.5 -7
q3 0 7.5 0.5t9.5 1t11 2t13 2.5q14 3 27.5 9t27.5 14q29 16 50.5 24.5t43.5 8.5q71 0 128 -39q31 -21 62 -61q-46 -41 -68 -72q-39 -58 -39 -126q0 -75 41 -136zM631 619q-36 -34 -65 -44q-10 -3 -26 -6q-15 -2 -36 -4q1 90 46.5 156t150.5 91q1 -5 2 -8.5t1 -5.5v-12
q0 -12 -2 -25.5t-5.5 -28t-9.5 -29.5q-18 -46 -56 -84z" />
    <glyph glyph-name="uniE60F" unicode="&#xe60f;" 
d="M828 181q0 -7 1.5 -14.5t5 -13.5t7.5 -11.5t9.5 -10t12 -7.5t13.5 -5t14 -2q9 0 17 2.5t15 6.5t13 10t10 13t6 15.5t2 16.5v247q0 26 -18 44.5t-45 18.5q-26 0 -44.5 -18.5t-18.5 -44.5v-247zM603 637q0 12 9 21t22 9q6 0 12 -2.5t10 -6.5t6.5 -9.5t2.5 -12t-2.5 -12
t-6.5 -9.5t-10 -6.5t-12 -2.5t-12 2.5t-10 6.5t-6.5 9.5t-2.5 12.5zM363 637q0 6 2.5 11.5t6.5 9.5t10 6.5t12 2.5t12 -2.5t10 -6.5t6.5 -9.5t2.5 -12t-2.5 -12t-6.5 -9.5t-10 -6.5t-12 -2.5t-12 2.5t-10 6.5t-6.5 9.5t-2.5 12.5zM234 38q0 -21 14 -35t35 -14h56v-138
q0 -12 4.5 -24t13 -20.5t20.5 -13.5t25 -5q25 0 44 19t19 44v138h97v-138q0 -17 8.5 -31.5t22.5 -23t32 -8.5q26 0 44.5 19t18.5 44v138h56q20 0 34.5 14t14.5 35v451h-559v-451zM792 529q-4 42 -23.5 79.5t-51 66.5t-72.5 48l51 74q7 9 -1 13q-7 4 -13 -3l-54 -77
q-59 21 -116 21q-58 0 -117 -21l-53 77q-7 8 -12 3q-8 -5 -2 -13l52 -74q-63 -30 -102.5 -80.5t-44.5 -113.5h559zM70 181q0 -26 18 -45t45 -19q17 0 31.5 8.5t23 23.5t8.5 32v247q0 8 -2.5 16.5t-6.5 15.5t-10 12.5t-13 9.5t-15 6.5t-16 2.5q-27 0 -45 -18.5t-18 -44.5
v-247z" />
  </font>
</defs>
</svg>
